<?xml version="1.0" standalone="no"?>
<!DOCTYPE svg PUBLIC "-//W3C//DTD SVG 1.1//EN" "http://www.w3.org/Graphics/SVG/1.1/DTD/svg11.dtd" >
<svg xmlns="http://www.w3.org/2000/svg">
<metadata></metadata>
<defs>
<font id="ubuntulight_italic" horiz-adv-x="1155" >
<font-face units-per-em="2048" ascent="1638" descent="-410" />
<missing-glyph horiz-adv-x="475" />
<glyph unicode="&#xfb01;" horiz-adv-x="1159" d="M-29 -369q51 70 87 128.5t60.5 115.5t43 115.5t35.5 128.5l254 1055q29 123 76.5 202.5t108 126.5t130.5 66.5t141 19.5q47 0 83 -5t69 -15l-41 -115q-31 10 -61.5 14.5t-69.5 4.5q-53 0 -98.5 -14.5t-83 -49.5t-68.5 -93.5t-53 -146.5l-29 -110h354l-24 -115h-359 l-176 -735q-25 -98 -48 -181t-53 -155t-69 -135.5t-92 -124.5zM848 0l256 1059h133l-256 -1059h-133zM1157 1368q0 53 30 81t64 28q41 0 63.5 -26t22.5 -67q0 -49 -32.5 -75.5t-65.5 -26.5q-41 0 -61.5 23.5t-20.5 62.5z" />
<glyph unicode="&#xfb02;" horiz-adv-x="1257" d="M-29 -369q51 70 87 128.5t60.5 115.5t43 115.5t35.5 128.5l254 1055q29 123 76.5 202.5t108 126.5t130.5 66.5t141 19.5q47 0 83 -5t69 -15l-41 -115q-31 10 -61.5 14.5t-69.5 4.5q-53 0 -98.5 -14.5t-83 -49.5t-68.5 -93.5t-53 -146.5l-29 -110h354l-24 -115h-359 l-176 -735q-25 -98 -48 -181t-53 -155t-69 -135.5t-92 -124.5zM934 256q0 49 8 103.5t23 113.5l262 1092l137 24l-254 -1067q-16 -70 -31.5 -132t-15.5 -116q0 -33 6 -60.5t24.5 -49t52.5 -37.5t87 -29l-31 -116q-150 18 -209 90.5t-59 183.5z" />
<glyph unicode="&#xd;" horiz-adv-x="475" />
<glyph horiz-adv-x="0" />
<glyph horiz-adv-x="0" />
<glyph unicode=" "  horiz-adv-x="475" />
<glyph unicode="&#x09;" horiz-adv-x="475" />
<glyph unicode="&#xa0;" horiz-adv-x="475" />
<glyph unicode="!" horiz-adv-x="462" d="M150 74q0 45 30.5 85t85.5 40q53 0 78 -30t25 -69q0 -45 -31 -85t-86 -40q-53 0 -77.5 30t-24.5 69zM301 436q16 135 38.5 274.5t63.5 313.5l95 395h143l-94 -397q-8 -35 -28.5 -110.5t-46.5 -164t-51.5 -174.5t-45.5 -137h-74z" />
<glyph unicode="&#x22;" horiz-adv-x="729" d="M406 1061q8 104 22 209.5t41 210.5l18 75h144l-19 -77q-27 -102 -61.5 -211t-77.5 -207h-67zM713 1061q8 104 22 209.5t41 210.5l18 75h144l-19 -77q-27 -102 -61.5 -211t-77.5 -207h-67z" />
<glyph unicode="#" horiz-adv-x="1275" d="M180 387l27 111h203l182 422h-285l27 110h305l168 389h127l-168 -389h354l168 389h127l-168 -389h176l-28 -110h-195l-180 -422h276l-28 -111h-295l-166 -387h-127l166 387h-359l-165 -387h-127l165 387h-180zM537 498h356l180 422h-356z" />
<glyph unicode="$" d="M201 137l65 111q16 -10 43 -24.5t66 -29t88 -23.5t108 -9q68 0 135.5 14t120 46t85 84t32.5 126q0 68 -36 110t-90 72.5t-117.5 57t-118 65.5t-90 96.5t-35.5 151.5q0 154 100 246t283 117l57 241h123l-55 -231q94 -4 165.5 -31t106.5 -49l-66 -113q-25 16 -88 42 t-174 26q-68 0 -126 -13.5t-103 -41t-70.5 -71.5t-25.5 -103q0 -70 36.5 -113t91 -75t118 -59.5t117.5 -65.5t91 -96t37 -149q0 -86 -30.5 -154.5t-87 -118.5t-135.5 -82t-173 -42l-65 -272h-121l65 274q-47 -2 -97 7.5t-96 22.5t-82 28.5t-52 27.5z" />
<glyph unicode="%" horiz-adv-x="1607" d="M324 983q0 72 23.5 154t70.5 150.5t118.5 114.5t170.5 46q117 0 177 -68.5t60 -197.5q0 -72 -23.5 -154t-70.5 -151.5t-120 -115.5t-171 -46q-117 0 -176 69.5t-59 198.5zM330 0l1122 1419h143l-1122 -1419h-143zM438 999q0 -37 4 -69.5t16.5 -57t37 -39t67.5 -14.5 q74 0 124 39t82 93.5t46 112.5t14 99q0 39 -4 72t-18 57.5t-39 37.5t-68 13q-74 0 -124 -38.5t-80.5 -93t-44 -114t-13.5 -98.5zM991 238q0 72 23.5 153.5t71 150t119 114.5t169.5 46q117 0 177.5 -68.5t60.5 -197.5q0 -72 -23.5 -153.5t-71 -151.5t-120 -116t-170.5 -46 q-117 0 -176.5 70t-59.5 199zM1106 254q0 -37 4 -69.5t16.5 -57.5t37 -39t67.5 -14q74 0 124 39t81.5 93t46 112.5t14.5 99.5q0 39 -4 71.5t-18.5 57t-39 38t-67.5 13.5q-74 0 -124 -39t-80.5 -93t-44 -113.5t-13.5 -98.5z" />
<glyph unicode="&#x26;" horiz-adv-x="1298" d="M201 322q0 66 19.5 126t65.5 117.5t122.5 109.5t189.5 101q-47 72 -69.5 144.5t-22.5 142.5q0 80 28.5 150.5t81 123t127 83t166.5 30.5q61 0 111.5 -20.5t87.5 -55.5t56.5 -83t19.5 -103q0 -53 -15.5 -107.5t-57.5 -108.5t-116.5 -109.5t-193.5 -112.5l-19 -11l269 -368 q47 59 90 131.5t80 161.5l122 -15q-41 -111 -98 -204t-123 -171q45 -66 83 -130t71 -144h-139q-16 47 -43 92t-60 92q-106 -98 -228 -150t-251 -52q-86 0 -151.5 27.5t-110.5 73.5t-68.5 107.5t-23.5 131.5zM336 338q0 -41 11 -82t37 -75t69.5 -55.5t111.5 -21.5 q98 0 200.5 43t199.5 132l-301 407q-55 -27 -113.5 -57.5t-107 -71.5t-78 -94t-29.5 -125zM635 1079q0 -63 21.5 -129.5t62.5 -124.5q109 47 175.5 92.5t102 89.5t48 87t12.5 84q0 78 -47 117.5t-113 39.5q-68 0 -117 -20.5t-81.5 -55t-48 -82t-15.5 -98.5z" />
<glyph unicode="'" horiz-adv-x="421" d="M406 1061q8 104 22 209.5t41 210.5l18 75h144l-19 -77q-27 -102 -61.5 -211t-77.5 -207h-67z" />
<glyph unicode="(" horiz-adv-x="618" d="M262 262q0 182 40 364.5t119 355.5t193.5 330.5t264.5 291.5l92 -68q-141 -127 -250 -276.5t-182.5 -312.5t-111.5 -334t-38 -341q0 -147 26.5 -295.5t82.5 -285.5l-103 -58q-66 156 -99.5 310.5t-33.5 318.5z" />
<glyph unicode=")" horiz-adv-x="618" d="M-45 -313q141 127 249.5 273t182.5 307t112 332t38 345q0 150 -28 303.5t-87 294.5l106 53q68 -158 102 -312.5t34 -319.5q0 -184 -40 -366.5t-119 -355.5t-193.5 -331t-264.5 -291z" />
<glyph unicode="*" horiz-adv-x="880" d="M272 1079l45 131q94 -31 165 -64.5t159 -78.5q-8 49 -14 91t-11.5 83t-8.5 84t-3 94h144q0 -51 -3.5 -94t-8.5 -84t-11 -83t-14 -91q88 45 158.5 79t164.5 64l45 -131q-96 -39 -176 -51t-180 -20q39 -35 71.5 -66t62.5 -61.5t58.5 -64.5t57.5 -77l-117 -80 q-29 43 -51.5 82t-44 76t-42 75t-42.5 83q-25 -45 -45.5 -83t-42 -75t-45 -76t-49.5 -82l-115 80q29 43 57.5 77t57 64.5t61.5 61.5t72 66q-49 4 -93.5 9t-86 12t-85 19.5t-90.5 30.5z" />
<glyph unicode="+" d="M262 535l29 114h389l108 445h121l-108 -445h389l-29 -114h-387l-108 -447h-119l106 447h-391z" />
<glyph unicode="," horiz-adv-x="487" d="M27 -272q41 51 75.5 114.5t60 128t41 123t21.5 101.5h144q-12 -68 -38 -139.5t-62 -139.5t-76.5 -129t-83.5 -109z" />
<glyph unicode="-" horiz-adv-x="571" d="M162 528l31 129h466l-30 -129h-467z" />
<glyph unicode="." horiz-adv-x="497" d="M160 72q0 45 30.5 85t85.5 40q53 0 78 -30t25 -69q0 -45 -31 -85t-86 -40q-53 0 -77.5 30t-24.5 69z" />
<glyph unicode="/" horiz-adv-x="774" d="M-127 -379l1143 1983h131l-1145 -1983h-129z" />
<glyph unicode="0" d="M246 397q0 121 20.5 246t59.5 241.5t96 220t128 180.5t156 122t181 45q172 -2 244.5 -118.5t72.5 -309.5q0 -180 -46 -367.5t-130 -340t-201.5 -250t-261.5 -97.5q-86 0 -147.5 31t-99 87t-55 135t-17.5 175zM385 416q0 -170 48 -247t142 -77q100 0 189.5 80t156 210 t105.5 294t39 330q0 170 -48 246.5t-143 76.5q-100 0 -189 -80t-155.5 -210t-105.5 -293.5t-39 -329.5z" />
<glyph unicode="1" d="M526 1126q119 43 238 111t235 182h99l-340 -1419h-131l291 1212q-66 -66 -164.5 -119t-202.5 -85z" />
<glyph unicode="2" d="M207 0q25 154 97.5 266.5t166.5 198.5t197.5 157.5t189.5 143.5t142.5 153.5t56.5 192.5q0 115 -62.5 166t-150.5 51q-86 0 -176 -36t-156 -91l-45 111q78 63 185.5 100t211.5 37q68 0 128.5 -18.5t106.5 -57.5t73.5 -100.5t27.5 -145.5q0 -96 -36 -175t-92 -146.5 t-128 -125.5t-145 -112q-90 -68 -164 -124t-128 -109t-89 -106.5t-49 -112.5h657l-27 -117h-792z" />
<glyph unicode="3" d="M160 45l53 115q57 -35 132 -51.5t155 -16.5q88 0 163.5 21.5t132 64.5t89.5 109.5t33 156.5q0 137 -97.5 197.5t-261.5 60.5l29 111h51q98 0 170 30.5t118 78t67.5 104.5t21.5 113q0 51 -16.5 88t-45 58.5t-66.5 31.5t-81 10q-72 0 -144.5 -22.5t-125.5 -57.5l-29 107 q72 45 153.5 70.5t169.5 25.5q63 0 123 -16.5t105 -52t72.5 -92t27.5 -138.5q0 -61 -18.5 -120.5t-56 -112t-95 -94.5t-133.5 -68q37 -14 73 -39t65.5 -62t48 -88t18.5 -118q0 -121 -48 -211.5t-126 -149.5t-179.5 -89t-207.5 -30q-90 0 -177 18.5t-163 57.5z" />
<glyph unicode="4" d="M195 385l20 80q63 111 156.5 235.5t205 250.5t236.5 247t254 221h133l-221 -923h174l-27 -111h-172l-90 -385h-131l90 385h-628zM369 496h479l180 747q-84 -68 -174 -153.5t-177 -183t-167 -202t-141 -208.5z" />
<glyph unicode="5" d="M164 43l55 121q59 -35 130 -53.5t143 -18.5q82 0 159.5 22.5t138 66.5t97.5 111.5t37 158.5q0 76 -28 127t-71 85.5t-98 53t-108.5 29t-101.5 12.5t-79 4q33 92 59.5 172t51 156.5t48.5 156.5t46 172h619l-27 -116h-500q-14 -47 -31.5 -104.5t-36 -117t-38 -116 t-33.5 -99.5q104 -10 191 -37.5t149.5 -77t96.5 -120t34 -164.5q0 -125 -47 -218t-125 -155.5t-181.5 -93.5t-213.5 -31q-86 0 -171 17.5t-165 56.5z" />
<glyph unicode="6" d="M256 391q0 209 70.5 395.5t199.5 326.5t313.5 224t411.5 88l-14 -120q-150 -4 -273.5 -46t-221 -114t-169 -170t-114.5 -211q78 39 160.5 61.5t168.5 22.5q92 0 159 -25.5t110 -70.5t63.5 -106.5t20.5 -135.5q0 -129 -44 -229.5t-116 -170t-163 -105.5t-185 -36 q-78 0 -146.5 27t-120 79t-81 131t-29.5 185zM393 391q0 -80 18.5 -138t51.5 -95t76 -54.5t90 -17.5q76 0 142.5 28.5t116.5 81t79.5 126t29.5 163.5q0 111 -57 175.5t-192 64.5q-84 0 -170 -24.5t-156 -59.5q-16 -59 -22.5 -122.5t-6.5 -127.5z" />
<glyph unicode="7" d="M352 0q35 113 88.5 236.5t120 247.5t142 244t155.5 226.5t160 194.5t153 147h-698l27 123h839l-28 -119q-92 -88 -210 -230t-233.5 -317t-216 -369t-157.5 -384h-142z" />
<glyph unicode="8" d="M203 272q0 59 15 122t55 124.5t109 119.5t173 107q-63 39 -105 104.5t-42 151.5q0 106 40.5 190.5t108.5 142t156 87t180 29.5q150 0 244 -74.5t94 -226.5q0 -59 -15.5 -119.5t-53.5 -118t-100.5 -110.5t-156.5 -99q96 -53 143.5 -126.5t47.5 -159.5q0 -106 -44 -189.5 t-118 -140.5t-170 -87t-203 -30q-72 0 -136.5 18.5t-113.5 55.5t-78.5 94.5t-29.5 134.5zM344 307q0 -59 18.5 -101t51 -68.5t75.5 -40t91 -13.5q72 0 139 22.5t119.5 63.5t84 100t31.5 131q0 63 -26.5 108.5t-69.5 78.5t-96 57.5t-109 46.5q-84 -43 -143 -92t-96 -99 t-53.5 -100.5t-16.5 -93.5zM547 1008q0 -53 22.5 -92t59.5 -69t83 -51.5t95 -39.5q147 78 216 173t69 201q0 102 -56.5 153.5t-161.5 51.5q-66 0 -124 -20.5t-104 -62.5t-72.5 -103t-26.5 -141z" />
<glyph unicode="9" d="M180 -2l25 117q156 -4 284.5 34.5t229 110.5t172.5 173.5t115 221.5q-96 -45 -180.5 -64.5t-131.5 -19.5q-96 0 -164.5 26t-112.5 70t-64.5 103t-20.5 127q0 133 43 235.5t114.5 173t163.5 107.5t191 37q72 0 137.5 -21.5t116.5 -69.5t80.5 -127t29.5 -194 q0 -215 -68.5 -405.5t-195.5 -331.5t-307 -223t-404 -82h-24t-29 2zM475 920q0 -92 56.5 -159t185.5 -67q68 0 148.5 18.5t174.5 63.5q31 125 31 266q0 143 -58 217t-169 74q-74 0 -141.5 -26.5t-117.5 -78.5t-80 -130t-30 -178z" />
<glyph unicode=":" horiz-adv-x="497" d="M160 72q0 45 30.5 85t85.5 40q53 0 78 -30t25 -69q0 -45 -31 -85t-86 -40q-53 0 -77.5 30t-24.5 69zM375 934q0 45 30.5 85t85.5 40q53 0 78 -30t25 -69q0 -45 -31 -85t-86 -40q-53 0 -77.5 30t-24.5 69z" />
<glyph unicode=";" horiz-adv-x="487" d="M27 -272q41 51 75.5 114.5t60 128t41 123t21.5 101.5h144q-12 -68 -38 -139.5t-62 -139.5t-76.5 -129t-83.5 -109zM375 934q0 45 30.5 85t85.5 40q53 0 78 -30t25 -69q0 -45 -31 -85t-86 -40q-53 0 -77.5 30t-24.5 69z" />
<glyph unicode="&#x3c;" d="M244 553l28 119l934 362l11 -125l-814 -307l658 -303l-66 -111z" />
<glyph unicode="=" d="M213 340l29 115h897l-27 -115h-899zM315 770l29 115h897l-27 -115h-899z" />
<glyph unicode="&#x3e;" d="M221 313l813 308l-657 303l65 110l752 -364l-29 -119l-934 -363z" />
<glyph unicode="?" horiz-adv-x="747" d="M242 74q0 45 30.5 85t85.5 40q53 0 78 -30t25 -69q0 -45 -31 -85t-86 -40q-53 0 -77.5 30t-24.5 69zM326 436q2 74 22.5 133.5t55 109.5t80.5 94t102 87l24 19q113 84 158 149.5t45 145.5q0 88 -55.5 122.5t-130.5 34.5q-66 0 -132.5 -18.5t-115.5 -40.5l-17 112 q61 29 137 47.5t152 18.5q61 0 116.5 -14.5t97.5 -46t66.5 -84t24.5 -127.5q0 -86 -37.5 -151.5t-96 -122t-125 -108t-125 -105.5t-96.5 -115.5t-38 -139.5h-112z" />
<glyph unicode="@" horiz-adv-x="1900" d="M242 362q0 264 85 467t228 341.5t331.5 209t397.5 70.5q147 0 269 -40t209 -122t135.5 -204.5t48.5 -290.5q0 -182 -49.5 -309.5t-125 -209t-167 -118.5t-172.5 -37q-57 0 -100.5 19.5t-59.5 56.5q-47 -33 -116 -56.5t-136 -23.5q-74 0 -135.5 19.5t-105.5 60.5 t-69.5 103t-25.5 146q0 129 41 238t114.5 186.5t177 121.5t230.5 44q98 0 176 -16.5t113 -30.5l-154 -622q-4 -16 -9 -35t-5 -37q0 -20 12.5 -40t73.5 -20q98 0 168 56.5t113 141.5t62.5 186.5t19.5 191.5q0 131 -39 230.5t-112 164t-175 97t-229 32.5q-168 0 -327 -62.5 t-283 -183t-199.5 -298t-75.5 -408.5q0 -279 150.5 -428.5t424.5 -149.5q131 0 289 37l-10 -112q-158 -41 -295 -41q-152 0 -280 45t-220 131t-143 212t-51 287zM825 457q0 -121 53.5 -175.5t145.5 -54.5q90 0 138 18.5t83 37.5q0 43 5 69.5t10 46.5l124 508q-2 2 -16 5 t-35.5 5.5t-47 4.5t-50.5 2q-90 0 -165 -35t-129 -97.5t-85 -148.5t-31 -186z" />
<glyph unicode="A" horiz-adv-x="1273" d="M41 0q211 381 434 741.5t438 677.5h150q51 -299 101 -646t98 -773h-144q-10 98 -21.5 194.5t-23.5 194.5h-667q-53 -94 -106.5 -190.5t-106.5 -198.5h-152zM475 508h584q-23 184 -49.5 369.5t-57.5 382.5q-125 -190 -243.5 -375t-233.5 -377z" />
<glyph unicode="B" horiz-adv-x="1222" d="M170 27l328 1366q66 16 155.5 28.5t186.5 12.5q88 0 172 -14.5t150.5 -51.5t106.5 -99.5t40 -156.5q0 -70 -24.5 -129t-64.5 -105.5t-93.5 -80t-110.5 -52.5q47 -12 85 -38.5t63.5 -62.5t40 -80t14.5 -89q0 -145 -59.5 -239.5t-156 -149.5t-220.5 -76.5t-255 -21.5 q-98 0 -189 11t-169 28zM330 121q43 -8 94 -11.5t108 -3.5q100 0 197.5 14.5t173.5 54.5t122 109.5t46 182.5q0 121 -82 167t-268 46h-260zM492 799h190q258 0 369.5 78.5t111.5 209.5q0 123 -87 174.5t-265 51.5q-55 0 -106.5 -4t-90.5 -11z" />
<glyph unicode="C" horiz-adv-x="1249" d="M283 518q0 219 67.5 392t182 293t264 183.5t313.5 63.5q96 0 179 -20.5t169 -67.5l-63 -127q-147 90 -314 90q-129 0 -246.5 -56.5t-207.5 -160.5t-143.5 -252.5t-53.5 -333.5q0 -209 90 -318.5t277 -109.5q82 0 145.5 10.5t109.5 24.5t77.5 29.5t54.5 27.5l18 -123 q-84 -45 -190.5 -69.5t-210.5 -24.5q-115 0 -210 32t-164 98.5t-106.5 170t-37.5 248.5z" />
<glyph unicode="D" horiz-adv-x="1390" d="M170 27l326 1366q100 23 182 31t162 8q313 0 464.5 -152t151.5 -430q0 -188 -61.5 -347t-181 -273.5t-298 -178t-411.5 -63.5q-41 0 -87 3t-90 7t-85 11t-72 18zM332 123q51 -8 98 -11t94 -3q193 0 339.5 56t244.5 154.5t148.5 232.5t50.5 292q0 236 -118 352.5 t-368 116.5q-51 0 -103 -4t-106 -13z" />
<glyph unicode="E" horiz-adv-x="1073" d="M170 0l340 1419h793l-27 -121h-658l-120 -493h585l-26 -119h-582l-141 -565h704l-24 -121h-844z" />
<glyph unicode="F" horiz-adv-x="1024" d="M170 0l340 1419h784l-26 -121h-650l-122 -499h579l-28 -121h-574l-164 -678h-139z" />
<glyph unicode="G" horiz-adv-x="1310" d="M283 530q0 180 57 346t163.5 293t259 204t341.5 77q92 0 157.5 -10t111.5 -24.5t75 -31t51 -26.5l-63 -127q-6 6 -35 21.5t-75 31.5t-106.5 28.5t-132.5 12.5q-152 0 -273.5 -65.5t-206.5 -174t-131 -251t-46 -297.5q0 -213 92 -328t297 -115q66 0 134.5 11.5t140.5 35.5 l120 523h140l-148 -617q-92 -37 -190 -57.5t-191 -20.5q-141 0 -244.5 39t-169 113t-97 177t-31.5 232z" />
<glyph unicode="H" horiz-adv-x="1341" d="M170 0l340 1419h139l-151 -616h735l147 616h140l-338 -1419h-140l164 682h-733l-164 -682h-139z" />
<glyph unicode="I" horiz-adv-x="471" d="M170 0l340 1419h139l-338 -1419h-141z" />
<glyph unicode="J" horiz-adv-x="921" d="M37 88l72 107q31 -31 102.5 -66t169.5 -35q55 0 104.5 11.5t92.5 44t77.5 93t59.5 158.5l246 1018h139l-246 -1034q-29 -123 -76 -203t-108.5 -128t-136 -66.5t-158.5 -18.5q-106 0 -191.5 33t-146.5 86z" />
<glyph unicode="K" horiz-adv-x="1226" d="M170 0l340 1419h137l-155 -653q100 72 217.5 164t230.5 184t208 173t150 132h185q-68 -61 -172.5 -149t-221 -182.5t-234.5 -187.5t-212 -167q74 -55 154 -144t154.5 -191.5t138 -207t100.5 -190.5h-152q-119 229 -255 409.5t-306 303.5l-168 -713h-139z" />
<glyph unicode="L" horiz-adv-x="970" d="M170 0l338 1419h139l-311 -1300h629l-27 -119h-768z" />
<glyph unicode="M" horiz-adv-x="1701" d="M139 0q104 383 218 741.5t218 677.5h140q31 -123 62.5 -262t60 -279.5t52 -272.5t40.5 -240q76 117 170 259t190 285.5t188.5 276.5t166.5 233h143q-18 -186 -43 -363t-52.5 -351.5t-59 -349.5t-66.5 -355h-144q72 334 124 637t91 573q-31 -39 -85 -115.5t-119.5 -173 t-136 -203t-136 -205.5t-119 -180t-81.5 -128h-123q-8 57 -22.5 141t-32 180.5t-37 198.5t-39 195.5t-37 169t-29.5 122.5q-90 -270 -182 -579t-180 -633h-140z" />
<glyph unicode="N" horiz-adv-x="1370" d="M170 0l340 1419h137q76 -131 150.5 -292.5t141.5 -326.5t117 -316.5t77 -260.5l278 1196h137l-336 -1419h-137q-37 125 -92 292t-119.5 339t-132 330.5t-129.5 269.5l-295 -1231h-137z" />
<glyph unicode="O" horiz-adv-x="1531" d="M283 528q0 211 69.5 382t184 291t259 184.5t296.5 64.5q100 0 192 -34t162 -102.5t110.5 -174t40.5 -246.5q0 -213 -69.5 -384t-184 -291t-260 -184.5t-295.5 -64.5q-102 0 -193 34t-160.5 102.5t-110.5 174t-41 248.5zM430 506q0 -104 28.5 -182t80 -128.5t118 -76 t144.5 -25.5q125 0 241.5 54.5t206.5 159t145.5 257t55.5 348.5q0 104 -28.5 182.5t-80 128.5t-119 75.5t-143.5 25.5q-125 0 -241.5 -54t-207.5 -158.5t-145.5 -257t-54.5 -349.5z" />
<glyph unicode="P" horiz-adv-x="1157" d="M170 0l334 1393q78 16 167 27.5t181 11.5q244 0 358.5 -92.5t114.5 -266.5q0 -115 -46 -211t-133 -165.5t-216 -108.5t-295 -39h-193l-133 -549h-139zM469 670h184q250 0 387.5 102t137.5 283q0 133 -86 194.5t-271 61.5q-53 0 -105 -5.5t-95 -9.5z" />
<glyph unicode="Q" horiz-adv-x="1531" d="M283 528q0 211 69.5 382t184 291t259 184.5t296.5 64.5q100 0 192 -34t162 -102.5t110.5 -174t40.5 -246.5q0 -201 -62 -364.5t-165.5 -282.5t-237 -188.5t-274.5 -84.5q-6 -18 -6 -34q0 -41 33 -73t88 -56.5t125.5 -42t146.5 -29.5l-53 -115q-72 8 -155 26.5 t-153.5 52.5t-117.5 86t-47 132v25.5t4 27.5q-90 10 -171 49t-140.5 108t-94 168t-34.5 230zM430 506q0 -104 28.5 -182t80 -128.5t118 -76t144.5 -25.5q125 0 241.5 54.5t206.5 159t145.5 257t55.5 348.5q0 104 -28.5 182.5t-80 128.5t-119 75.5t-143.5 25.5 q-125 0 -241.5 -54t-207.5 -158.5t-145.5 -257t-54.5 -349.5z" />
<glyph unicode="R" horiz-adv-x="1212" d="M170 0l334 1393q72 14 157 26.5t175 12.5q242 0 362.5 -97.5t120.5 -275.5q0 -160 -102.5 -280t-311.5 -173q25 -45 59.5 -117.5t70.5 -156.5t70 -171t56 -161h-147q-57 174 -126 324.5t-128 255.5q-68 -6 -142 -7h-172l-137 -573h-139zM473 692h170q256 0 393.5 97.5 t137.5 273.5q0 129 -86.5 188.5t-272.5 59.5q-53 0 -103 -5.5t-91 -9.5z" />
<glyph unicode="S" horiz-adv-x="997" d="M98 70l72 120q59 -45 144 -72.5t178 -27.5q74 0 142 17.5t122.5 55.5t87.5 96t33 140t-39 133.5t-97.5 88t-127 68.5t-127 77t-97.5 109.5t-39 168.5q0 74 31 147t95.5 130t161.5 93t230 36q88 0 167 -17.5t171 -62.5l-71 -117q-72 43 -142.5 60.5t-148.5 17.5 q-68 0 -130.5 -15.5t-111.5 -47t-78.5 -83.5t-29.5 -126q0 -82 38.5 -133.5t98 -88t127 -68.5t127 -76t98.5 -111.5t39 -175.5q0 -80 -32 -159t-100.5 -140.5t-174 -99.5t-252.5 -38q-98 0 -191.5 27t-173.5 74z" />
<glyph unicode="T" horiz-adv-x="1077" d="M348 1298l27 121h1009l-28 -121h-434l-312 -1298h-139l311 1298h-434z" />
<glyph unicode="U" horiz-adv-x="1327" d="M283 369q0 90 24 188l205 862h139l-207 -858q-10 -47 -17 -93t-7 -89q0 -61 14.5 -113.5t49 -91.5t90 -61.5t139.5 -22.5q94 0 165.5 26.5t126 83t93.5 144.5t69 211l209 864h140l-213 -884q-37 -150 -88.5 -257.5t-124 -176t-169 -101.5t-221.5 -33q-109 0 -187.5 30 t-129.5 83t-75.5 127t-24.5 162z" />
<glyph unicode="V" horiz-adv-x="1218" d="M348 1419h135q18 -213 37 -391t38.5 -331.5t39.5 -287t45 -253.5q197 268 384 587.5t364 675.5h155q-129 -240 -243.5 -441.5t-221 -374.5t-206 -321.5t-199.5 -281.5h-129q-29 143 -54.5 284.5t-49 305.5t-47 364.5t-48.5 464.5z" />
<glyph unicode="W" horiz-adv-x="1775" d="M349 700q5 352 28 719h135q-20 -309 -28 -625q-3 -122 -3 -245q0 -196 8 -395q86 135 161 255.5t148.5 246.5t151.5 266.5t172 314.5h123q10 -154 24.5 -305.5t30 -291.5t33 -264t33.5 -220q68 119 139.5 267t143 312t143.5 338t139 346h152q-166 -414 -330 -763 t-338 -656h-147q-39 215 -72 470t-55 552q-152 -276 -302.5 -524t-312.5 -498h-147q-31 304 -31 612q0 44 1 88z" />
<glyph unicode="X" horiz-adv-x="1126" d="M20 0l646 750l-289 669h151l244 -575q133 152 250 296t215 279h156q-143 -186 -281.5 -350t-286.5 -328q74 -178 154 -365.5t149 -375.5h-151q-20 63 -48 138t-60.5 158t-69.5 170t-76 173l-535 -639h-168z" />
<glyph unicode="Y" horiz-adv-x="1136" d="M369 1419h151q41 -176 94.5 -363.5t118.5 -348.5q70 78 147.5 168t153.5 184t143.5 186t120.5 174h166q-141 -188 -319 -407t-371 -439l-135 -573h-139l135 573q-39 104 -75 215t-69.5 219.5t-64.5 214t-57 197.5z" />
<glyph unicode="Z" horiz-adv-x="1120" d="M82 0l22 104q59 84 142.5 185.5t178.5 212t196.5 223.5t200 218.5t188.5 196.5t161 158h-743l29 121h909l-29 -127q-59 -53 -141 -135t-177 -179t-195.5 -208t-200 -222.5t-189.5 -221t-162 -205.5h793l-27 -121h-956z" />
<glyph unicode="[" horiz-adv-x="624" d="M119 -379l477 1983h401l-22 -103h-279l-430 -1777h281l-27 -103h-401z" />
<glyph unicode="\" horiz-adv-x="739" d="M365 1604h122l215 -1983h-122z" />
<glyph unicode="]" horiz-adv-x="626" d="M-106 -379l24 103h279l430 1777h-281l27 103h401l-477 -1983h-403z" />
<glyph unicode="^" d="M307 737l537 682h100l215 -696l-100 -45l-191 602l-469 -596z" />
<glyph unicode="_" horiz-adv-x="1124" d="M-25 -379l27 111h1024l-27 -111h-1024z" />
<glyph unicode="`" horiz-adv-x="688" d="M436 1464l109 119l299 -317l-72 -72z" />
<glyph unicode="a" horiz-adv-x="1069" d="M201 365q0 164 53 297t148.5 226t225.5 144t283 51q127 0 244 -43l-158 -637q-12 -51 -20 -96t-8 -86q0 -55 10 -104t37 -109l-137 -20q-12 25 -21.5 56.5t-13.5 64.5q-72 -70 -151 -103t-163 -33q-66 0 -125 22.5t-104 70t-72.5 122t-27.5 177.5zM336 391 q0 -84 16.5 -140t45 -90t66.5 -49.5t81 -15.5q84 0 157.5 40t139.5 114q0 55 16 127t31 129l108 438q-37 8 -67.5 12.5t-63.5 4.5q-127 0 -225 -49.5t-165.5 -129.5t-103.5 -182t-36 -209z" />
<glyph unicode="b" horiz-adv-x="1071" d="M160 35l366 1530l140 24l-140 -588q61 41 131 61.5t138 20.5q174 0 258 -106.5t84 -288.5q0 -131 -45 -259t-133.5 -228.5t-219.5 -163t-303 -62.5q-145 0 -276 60zM315 121q74 -23 146 -23q133 0 234.5 53.5t169 137.5t102 186.5t34.5 202.5q0 147 -64.5 215t-162.5 68 q-66 0 -140.5 -30t-146.5 -85z" />
<glyph unicode="c" horiz-adv-x="931" d="M201 375q0 139 43 267t126 226.5t203.5 156.5t274.5 58q106 0 211 -34l-55 -121q-47 18 -93.5 25.5t-89.5 7.5q-109 0 -197.5 -46.5t-152 -125t-98.5 -182t-35 -218.5q0 -135 62.5 -213t199.5 -78q43 0 87 8.5t81 19.5t65.5 23.5t43.5 22.5l14 -121q-41 -27 -126 -51.5 t-190 -24.5q-186 0 -280 106.5t-94 293.5z" />
<glyph unicode="d" horiz-adv-x="1105" d="M201 371q0 129 42 256t129 228t220 164.5t313 63.5q66 0 133 -12l117 494l139 24l-295 -1222q-10 -37 -15 -72t-5 -68q0 -59 10 -112.5t37 -106.5l-137 -20q-10 20 -20.5 54t-14.5 67q-18 -20 -48 -44t-71 -43.5t-92 -33t-113 -13.5q-88 0 -150.5 32t-102 85t-58 126 t-18.5 153zM336 389q0 -61 11 -113.5t36 -92.5t63.5 -62.5t94.5 -22.5q51 0 97 14.5t86 36t72.5 48t55.5 51.5q0 53 14.5 119.5t32.5 138.5l111 444q-29 4 -64 7.5t-63 3.5q-143 0 -247 -52.5t-170.5 -135.5t-98 -184.5t-31.5 -199.5z" />
<glyph unicode="e" horiz-adv-x="999" d="M201 365q0 131 40 260t117.5 231t191.5 164.5t259 62.5q143 0 220 -74.5t77 -197.5q0 -115 -56.5 -186.5t-157.5 -113.5t-243.5 -60.5t-316.5 -26.5v-43q0 -59 12 -110.5t45 -89.5t91.5 -60.5t150.5 -22.5q72 0 144.5 20.5t137.5 61.5l15 -123q-70 -39 -154 -60.5 t-170 -21.5q-113 0 -189.5 29t-124.5 80t-68.5 123t-20.5 158zM352 545q174 4 293 22.5t191.5 51t103.5 78.5t31 106q0 80 -48 120t-126 40q-82 0 -154 -34t-129 -91.5t-99 -133t-63 -159.5z" />
<glyph unicode="f" horiz-adv-x="727" d="M-29 -369q51 70 87 128.5t60.5 115.5t43 115.5t35.5 128.5l254 1055q29 123 76.5 202.5t108 126.5t130.5 66.5t141 19.5q70 0 120 -12t93 -29l-63 -106q-43 14 -81 22.5t-89 8.5q-53 0 -98.5 -14.5t-83 -49.5t-68.5 -93.5t-53 -146.5l-29 -110h354l-24 -115h-359 l-176 -735q-25 -98 -48 -181t-53 -155t-69 -135.5t-92 -124.5z" />
<glyph unicode="g" horiz-adv-x="1073" d="M33 -309l57 127q43 -35 124 -57.5t161 -22.5q188 0 289.5 86t132.5 244l10 53q-61 -39 -131 -58.5t-139 -19.5q-88 0 -153 28.5t-105.5 79t-61 117t-20.5 142.5q0 117 42 236.5t130 217t220 158.5t314 61q74 0 139.5 -15t116.5 -44l-229 -954q-20 -86 -53 -168 t-96.5 -145.5t-169 -102.5t-271.5 -39q-33 0 -74 5t-83 15.5t-81 23.5t-69 32zM332 438q0 -55 10 -105t34.5 -87t67.5 -58.5t111 -21.5q70 0 144.5 25.5t142.5 68.5l166 686q-66 16 -127 17q-141 0 -245 -49.5t-171.5 -126t-100 -170t-32.5 -179.5z" />
<glyph unicode="h" horiz-adv-x="1116" d="M170 0l373 1565l139 24l-135 -559q129 53 244 53q70 0 129 -20.5t104 -61t70.5 -103t25.5 -148.5q0 -53 -8 -109.5t-22 -114.5l-127 -526h-134l113 471q16 68 30.5 137.5t14.5 132.5q0 61 -19.5 103.5t-51 68t-74.5 37t-90 11.5q-59 0 -120 -12.5t-114 -30.5l-215 -918 h-133z" />
<glyph unicode="i" horiz-adv-x="481" d="M170 0l256 1059h133l-256 -1059h-133zM479 1368q0 53 30 81t64 28q41 0 63.5 -26t22.5 -67q0 -49 -32.5 -75.5t-65.5 -26.5q-41 0 -61.5 23.5t-20.5 62.5z" />
<glyph unicode="j" horiz-adv-x="481" d="M-207 -348l31 112q33 -16 62.5 -24t68.5 -8q55 0 94 22.5t68.5 62.5t49 95t36.5 121l243 1026h134l-240 -1002q-27 -111 -58.5 -193.5t-77.5 -138t-110.5 -83t-154.5 -27.5q-51 0 -87 11.5t-59 25.5zM504 1368q0 53 29.5 81t64.5 28q41 0 63.5 -26t22.5 -67 q0 -49 -33 -75.5t-65 -26.5q-41 0 -61.5 23.5t-20.5 62.5z" />
<glyph unicode="k" horiz-adv-x="1021" d="M170 0l377 1565l139 24l-235 -979q74 49 150.5 111.5t147 125t128 119t90.5 93.5h161q-37 -47 -105.5 -114.5t-145 -137.5t-151.5 -130.5t-124 -88.5q70 -53 136.5 -125t121.5 -152t99.5 -160.5t68.5 -150.5h-143q-90 193 -205 331t-242 224l-135 -555h-133z" />
<glyph unicode="l" horiz-adv-x="544" d="M221 256q0 49 8.5 103.5t22.5 113.5l262 1092l137 24l-254 -1067q-16 -70 -31.5 -132t-15.5 -116q0 -33 6 -60.5t24.5 -49t52.5 -37.5t87 -29l-31 -116q-150 18 -209 90.5t-59 183.5z" />
<glyph unicode="m" horiz-adv-x="1681" d="M170 0l244 1022q31 10 69.5 20.5t81.5 18.5t88 13t86 5q86 0 157 -23.5t118 -84.5q104 61 183 84.5t155 23.5q70 0 130 -15t105 -52t72 -100.5t27 -161.5q0 -53 -8.5 -109.5t-22.5 -114.5l-127 -526h-133l112 471q16 68 30.5 137.5t14.5 132.5t-16 105.5t-46 67t-69 33.5 t-84 9q-43 0 -111.5 -15t-164.5 -77q12 -53 12 -114q0 -53 -8 -109.5t-23 -114.5l-127 -526h-133l113 471q16 68 30.5 137.5t14.5 132.5t-16.5 105.5t-46 67t-68.5 33.5t-84 9q-47 0 -100.5 -8t-98.5 -20l-223 -928h-133z" />
<glyph unicode="n" horiz-adv-x="1118" d="M170 0l244 1022q80 23 170 40t178 17q74 0 139.5 -15t114.5 -54t77.5 -102.5t28.5 -157.5q0 -53 -8 -109.5t-22 -114.5l-127 -526h-134l113 471q16 68 29.5 137.5t15.5 132.5q0 63 -19.5 104.5t-53 66t-78.5 34.5t-95 10q-53 0 -108 -8t-109 -20l-223 -928h-133z" />
<glyph unicode="o" horiz-adv-x="1077" d="M201 332q0 193 54 334t139 233t188.5 137t203.5 45q72 0 136.5 -22.5t113.5 -67.5t78 -111.5t29 -152.5q0 -193 -54.5 -334t-139.5 -234t-188.5 -138.5t-203.5 -45.5q-72 0 -136.5 22.5t-113.5 68t-77.5 112t-28.5 154.5zM336 340q0 -121 67.5 -182.5t161.5 -61.5 q74 0 152 38t142.5 115t106.5 193.5t42 274.5q0 121 -68 182.5t-162 61.5q-74 0 -151.5 -38t-142 -115t-106.5 -193.5t-42 -274.5z" />
<glyph unicode="p" horiz-adv-x="1062" d="M78 -379l336 1395q86 31 172 49t170 18q372 0 372 -387q0 -139 -45 -268t-132 -228.5t-213 -158.5t-287 -59q-80 0 -148 18l-90 -379h-135zM336 123q63 -18 129 -19q127 0 225 50.5t166 131.5t102.5 182t34.5 206q0 154 -67.5 224.5t-202.5 70.5q-47 0 -95 -8.5 t-100 -22.5z" />
<glyph unicode="q" horiz-adv-x="1103" d="M201 360q0 129 42 259.5t133 232.5t235.5 166.5t351.5 64.5q39 0 101 -12t105 -41l-340 -1409h-133l99 412q-47 -27 -114 -42.5t-140 -15.5q-92 0 -157 32t-105.5 85t-59 123t-18.5 145zM336 379q0 -43 8 -93t32.5 -93t71 -72t121.5 -29q72 0 141.5 25.5t120.5 66.5 l185 764q-23 4 -48.5 10.5t-45.5 6.5q-133 0 -241 -44t-184.5 -122t-118.5 -185.5t-42 -234.5z" />
<glyph unicode="r" horiz-adv-x="749" d="M170 0l242 1012q78 31 171 51t183 20q47 0 90 -6t82 -20l-35 -121q-80 25 -164 25q-53 0 -106 -8.5t-107 -24.5l-223 -928h-133z" />
<glyph unicode="s" horiz-adv-x="819" d="M98 47l58 121q76 -41 133 -55.5t129 -14.5q51 0 98 11.5t82 34t55.5 59.5t20.5 86q0 53 -30 88t-74 60.5t-95 50t-95 57.5t-74 82t-30 127q0 88 33 150.5t88.5 102.5t127 58t147.5 18q66 0 130 -11t124 -34l-54 -118q-43 18 -98 29.5t-115 11.5q-49 0 -95 -10.5 t-80.5 -34t-56 -59.5t-21.5 -87q0 -53 29.5 -88t72.5 -61.5t95 -50t95 -56.5t73 -79t30 -118q0 -90 -34 -155.5t-89 -106.5t-127 -60.5t-148 -19.5q-80 0 -159.5 17.5t-145.5 54.5z" />
<glyph unicode="t" horiz-adv-x="772" d="M231 223q0 88 29 203l227 944l140 25l-80 -336h373l-27 -115h-375l-125 -518q-10 -37 -17 -79t-7 -83q0 -92 45 -129t112 -37q66 0 114 14.5t101 39.5l13 -121q-55 -23 -124 -39.5t-136 -16.5q-53 0 -100.5 12.5t-83.5 41t-57.5 76t-21.5 118.5z" />
<glyph unicode="u" horiz-adv-x="1069" d="M201 272q0 59 10 126t27 134l127 527h133l-113 -467q-16 -72 -35.5 -151t-19.5 -150q0 -41 9 -76t31.5 -61.5t59.5 -41t94 -14.5q98 0 173 39t141 113q0 55 16 127t31 129l137 553h133l-162 -656q-12 -51 -20 -96t-8 -86q0 -55 10 -104t37 -109l-138 -20q-12 25 -21 56.5 t-13 64.5q-72 -70 -153 -102t-179 -32q-88 0 -147.5 22.5t-94.5 62.5t-50 94.5t-15 117.5z" />
<glyph unicode="v" horiz-adv-x="931" d="M266 1059h131q2 -111 10.5 -234t22.5 -245.5t33.5 -237.5t44.5 -205q61 82 134 195.5t142.5 239.5t128 252t93.5 235h131q-41 -129 -106.5 -270.5t-145.5 -280.5t-171 -270.5t-179 -237.5h-132q-51 227 -92 499.5t-45 559.5z" />
<glyph unicode="w" horiz-adv-x="1562" d="M266 1059h131q2 -109 8.5 -237t16.5 -255t22.5 -239.5t28.5 -188.5q66 92 134.5 205t131 234.5t116.5 244.5t91 236h137q0 -100 5.5 -219t13.5 -242t19.5 -241.5t25.5 -217.5q49 55 119.5 167t142.5 244t134.5 267t92.5 242h131q-47 -152 -122.5 -310.5t-160.5 -301 t-169 -260t-148 -187.5h-139q-20 180 -38.5 389t-22.5 412q-41 -96 -95.5 -206t-116 -217.5t-126 -205.5t-125.5 -172h-139q-43 225 -69 493.5t-30 565.5z" />
<glyph unicode="x" horiz-adv-x="925" d="M25 0l495 555l-262 504h156l207 -428q94 115 183 228.5t142 199.5h148q-90 -135 -200 -270.5t-212 -253.5q27 -51 59.5 -115t66.5 -134.5t63.5 -143t52.5 -142.5h-140q-14 47 -36.5 105.5t-50 120t-56.5 122t-53 109.5l-402 -457h-161z" />
<glyph unicode="y" horiz-adv-x="925" d="M-121 -348l47 110q53 -30 121 -30h4q104 0 204.5 57t186.5 174q-86 272 -135 553t-57 543h139q4 -98 13.5 -215t28 -244t45 -259t65.5 -257q92 145 165.5 293.5t129 279.5t91.5 236.5t52 165.5h131q-12 -43 -45 -146.5t-88 -240.5t-134 -296t-181 -310 q-158 -236 -305.5 -343.5t-307.5 -107.5q-37 0 -80 6t-90 31z" />
<glyph unicode="z" horiz-adv-x="876" d="M82 0l22 94q41 66 102.5 143.5t132.5 157.5t146.5 160t148.5 151.5t137.5 133t113.5 104.5h-551l24 115h723l-24 -105q-43 -39 -110.5 -102.5t-145.5 -140t-160 -161.5t-156.5 -165t-134 -150.5t-90.5 -119.5h604l-24 -115h-758z" />
<glyph unicode="{" horiz-adv-x="624" d="M221 541l25 100q59 0 99 29.5t66.5 75t43 96.5t26.5 94l54 213q29 117 55 199t71.5 134t119 76.5t196.5 24.5l-27 -102q-51 0 -93 -7.5t-75.5 -31t-59.5 -67.5t-44 -115l-60 -242q-25 -96 -47 -169t-48.5 -126t-60.5 -88t-81 -55q51 -31 66.5 -76t15.5 -96q0 -37 -7 -75 t-16 -73l-82 -338q-14 -55 -14 -96q0 -66 45 -94.5t133 -28.5l-28 -102q-127 0 -198 50t-71 159q0 23 6.5 60.5t16.5 78.5l78 315q10 37 15 71t5 62q0 59 -27.5 98.5t-97.5 45.5z" />
<glyph unicode="|" horiz-adv-x="550" d="M119 -379l477 1983h123l-477 -1983h-123z" />
<glyph unicode="}" horiz-adv-x="624" d="M-37 -399l27 102q51 0 93 7t76 30.5t59.5 68t43.5 115.5l60 242q25 96 47 169t48.5 126t60.5 88t81 55q-51 31 -66.5 76t-15.5 96q0 37 7.5 75t15.5 73l82 338q14 55 14 96q0 66 -45 94.5t-133 28.5l28 102q127 0 198 -50t71 -159q0 -23 -6.5 -60.5t-16.5 -78.5l-78 -315 q-10 -37 -15 -71t-5 -63q0 -59 27.5 -98t97.5 -45l-25 -100q-59 0 -99 -30t-66.5 -75t-43 -96t-26.5 -94l-53 -213q-29 -117 -55.5 -200t-72 -135t-119 -75.5t-196.5 -23.5z" />
<glyph unicode="~" d="M217 483q14 35 39 80t62.5 85t89 67.5t118.5 27.5q66 0 112 -29.5t86 -65.5t81 -65.5t96 -29.5q43 0 76 21.5t56.5 50t37.5 56.5t21 40l98 -33q-12 -33 -36 -78t-62.5 -85t-92 -67.5t-122.5 -27.5q-66 0 -112 29.5t-86 65.5t-80 66t-93 30q-43 0 -76 -23t-56.5 -51.5 t-37.5 -56t-21 -39.5z" />
<glyph unicode="&#xa1;" horiz-adv-x="544" d="M188 -379h144l94 395q41 174 63.5 313.5t38.5 274.5h-73q-20 -53 -46 -138t-51.5 -173t-46 -165t-28.5 -110zM461 940q0 45 31 85t86 40q53 0 77.5 -29.5t24.5 -68.5q0 -45 -31 -85t-86 -40q-53 0 -77.5 29.5t-24.5 68.5z" />
<glyph unicode="&#xa2;" d="M305 453q0 115 36 225t104.5 202.5t170 158t232.5 87.5l72 293h120l-69 -289q51 0 112.5 -13t112.5 -36l-53 -116q-55 27 -108.5 38t-106.5 11q-102 0 -190.5 -43t-155 -119t-104.5 -179.5t-38 -221.5q0 -72 23.5 -123.5t63.5 -84t93.5 -48t110.5 -15.5q63 0 128 16.5 t120 47.5l8 -119q-31 -16 -106.5 -39t-165.5 -23l-70 -286h-121l72 293q-80 16 -136.5 53t-90 87t-49 112.5t-15.5 130.5z" />
<glyph unicode="&#xa3;" d="M264 0q53 141 111.5 305t93.5 328h-197l27 112h197l45 189q35 147 86 245.5t116.5 158t145.5 84t174 24.5q70 0 135.5 -18.5t118.5 -49.5l-64 -110q-88 53 -215 53q-63 0 -117.5 -17.5t-99.5 -61.5t-80.5 -118.5t-62.5 -187.5l-45 -191h401l-28 -112h-400 q-23 -109 -64.5 -247t-95.5 -269h613l-29 -117h-766z" />
<glyph unicode="&#xa5;" d="M211 236l27 108h342l57 244h-342l27 108h313q-78 190 -137.5 367.5t-104.5 355.5h142q37 -174 86.5 -334.5t119.5 -322.5q147 162 279.5 327.5t253.5 329.5h135q-66 -88 -131.5 -176t-136 -178t-149.5 -182t-171 -187h320l-27 -108h-344l-57 -244h344l-27 -108h-344 l-57 -236h-133l57 236h-342z" />
<glyph unicode="&#xa7;" horiz-adv-x="1007" d="M119 -150l63 115q53 -37 127 -55.5t150 -18.5q59 0 115.5 12.5t99.5 39t69.5 66.5t26.5 95q0 57 -37 92t-93 59t-120.5 45.5t-121 55t-93.5 87t-37 139.5q0 117 74 206t199 160q-31 39 -47.5 83t-16.5 85q0 88 37 151.5t97.5 103.5t138 59.5t159.5 19.5q78 0 153 -16.5 t134 -47.5l-57 -104q-47 33 -108.5 48.5t-123.5 15.5q-57 0 -110.5 -13.5t-94 -39t-65.5 -63.5t-25 -87q0 -66 36 -102.5t88 -61.5t114.5 -45.5t115 -52t88.5 -84t36 -138.5q0 -115 -74 -201.5t-191 -152.5q37 -29 59.5 -73t22.5 -103q0 -92 -39 -158.5t-102.5 -109.5 t-145 -63.5t-169.5 -20.5t-174.5 18.5t-157.5 54.5zM403 602q0 -61 35 -101t113 -71l164 -68q106 45 172.5 121t66.5 154q0 51 -28.5 93t-118.5 77l-193 76q-41 -23 -78.5 -51.5t-67.5 -64.5t-47.5 -78t-17.5 -87z" />
<glyph unicode="&#xa8;" horiz-adv-x="688" d="M360 1366q0 41 27 76t76 35q47 0 68.5 -27t21.5 -59q0 -39 -27.5 -75t-76.5 -36q-45 0 -67 25.5t-22 60.5zM713 1366q0 41 27.5 76t76.5 35q45 0 66.5 -27t21.5 -59q0 -39 -26.5 -75t-75.5 -36q-47 0 -68.5 25.5t-21.5 60.5z" />
<glyph unicode="&#xa9;" horiz-adv-x="1544" d="M242 711q0 174 57 312t152.5 232.5t221.5 144.5t263 50t263 -50t221.5 -144.5t152.5 -232.5t57 -312q0 -176 -57 -313.5t-152.5 -232.5t-221.5 -145.5t-263 -50.5t-263 50.5t-221.5 145.5t-152.5 232.5t-57 313.5zM362 711q0 -141 43.5 -258t119 -200t181 -129t230.5 -46 t230.5 46t181 129t118.5 200t43 258t-43 257.5t-118.5 199.5t-181 128t-230.5 45t-230.5 -45t-181 -128t-119 -199.5t-43.5 -257.5zM569 713q0 98 32 175t85 131t123 81.5t145 27.5q100 0 163 -27.5t85 -43.5l-39 -92q-31 16 -79 35.5t-130 19.5q-113 0 -187.5 -80 t-74.5 -227q0 -152 73 -233t198 -81q88 0 138 19.5t73 34.5l34 -99q-27 -16 -94.5 -39.5t-167.5 -23.5q-80 0 -148.5 28.5t-119.5 82t-80 132t-29 179.5z" />
<glyph unicode="&#xab;" horiz-adv-x="978" d="M242 582l387 432l73 -62l-303 -379l170 -380l-94 -46zM604 582l387 432l73 -62l-303 -379l170 -380l-94 -46z" />
<glyph unicode="&#xad;" horiz-adv-x="571" d="M162 528l31 129h466l-30 -129h-467z" />
<glyph unicode="&#xae;" horiz-adv-x="1544" d="M242 711q0 174 57 312t152.5 232.5t221.5 144.5t263 50t263 -50t221.5 -144.5t152.5 -232.5t57 -312q0 -176 -57 -313.5t-152.5 -232.5t-221.5 -145.5t-263 -50.5t-263 50.5t-221.5 145.5t-152.5 232.5t-57 313.5zM362 711q0 -141 43.5 -258t119 -200t181 -129t230.5 -46 t230.5 46t181 129t118.5 200t43 258t-43 257.5t-118.5 199.5t-181 128t-230.5 45t-230.5 -45t-181 -128t-119 -199.5t-43.5 -257.5zM655 305v793q47 10 105.5 16t109.5 6q174 0 265.5 -63.5t91.5 -192.5q0 -74 -41 -132t-121 -87q16 -18 44 -56t58.5 -85t61.5 -100.5 t53 -98.5h-125q-53 96 -110.5 183t-100.5 139q-14 -2 -26.5 -2h-22.5h-129v-320h-113zM768 717h102q51 0 94.5 6t75 23.5t49 46t17.5 73.5q0 43 -19.5 73t-51 48.5t-72.5 26.5t-86 8q-31 0 -58.5 -1t-50.5 -3v-301z" />
<glyph unicode="&#xb0;" horiz-adv-x="632" d="M344 1315q0 63 21.5 113.5t58.5 84t85 52t101 18.5t101.5 -18.5t85.5 -52t58.5 -84t21.5 -113.5t-21.5 -113.5t-58.5 -84.5t-85.5 -52t-101.5 -18t-101 18t-85 52t-58.5 84t-21.5 114zM442 1315q0 -82 48 -129t120 -47t120 47t48 129t-48 129t-120 47t-120 -47t-48 -129z " />
<glyph unicode="&#xb4;" horiz-adv-x="688" d="M442 1284l340 299l78 -127l-358 -262z" />
<glyph unicode="&#xb6;" horiz-adv-x="1198" d="M283 895q0 102 45 199.5t137 172t231.5 121t325.5 46.5q41 0 91 -2t99.5 -6.5t93.5 -10.5t74 -16l-426 -1778h-118l405 1682q-43 4 -83 7t-83 3h-33.5t-35.5 -2l-408 -1690h-119l219 920q-104 0 -182 28.5t-130 77.5t-77.5 112.5t-25.5 135.5z" />
<glyph unicode="&#xb7;" horiz-adv-x="415" d="M242 686q0 45 30.5 85t85.5 40q53 0 78 -30t25 -69q0 -45 -31 -85t-86 -40q-53 0 -77.5 30t-24.5 69z" />
<glyph unicode="&#xb8;" horiz-adv-x="688" d="M72 -358l37 88q45 -18 100 -19q47 0 75.5 14.5t28.5 49.5q0 31 -19.5 49t-76.5 41q10 20 27.5 47t36 52.5t35 46t24.5 30.5h96q-16 -23 -41.5 -58.5t-42.5 -60.5q47 -27 68.5 -54.5t21.5 -76.5q0 -84 -64.5 -129t-162.5 -45q-35 0 -68.5 4t-74.5 21z" />
<glyph unicode="&#xbb;" horiz-adv-x="978" d="M221 209l303 379l-170 381l95 45l233 -434l-387 -433zM583 209l303 379l-170 381l95 45l233 -434l-387 -433z" />
<glyph unicode="&#xbf;" horiz-adv-x="788" d="M188 -113q0 -76 25 -128t67 -83.5t97 -46t117 -14.5q76 0 151.5 18.5t136.5 47.5l-16 112q-49 -23 -115.5 -41t-132.5 -18q-37 0 -70.5 8t-59.5 26.5t-41 48t-15 74.5q0 80 45 145.5t158 149.5l24 19q55 43 101.5 87t81 94t55 109.5t22.5 133.5h-112q0 -78 -38 -139.5 t-96.5 -116t-125 -105.5t-125 -107.5t-96.5 -123t-38 -150.5zM684 965q0 45 31 85t86 40q53 0 77.5 -30t24.5 -69q0 -45 -30.5 -85t-86.5 -40q-53 0 -77.5 30t-24.5 69z" />
<glyph unicode="&#xc2;" horiz-adv-x="1273" d="M41 0q211 381 434 741.5t438 677.5h150q51 -299 101 -646t98 -773h-144q-10 98 -21.5 194.5t-23.5 194.5h-667q-53 -94 -106.5 -190.5t-106.5 -198.5h-152zM475 508h584q-23 184 -49.5 369.5t-57.5 382.5q-125 -190 -243.5 -375t-233.5 -377zM746 1571l346 301l203 -301 l-70 -68l-166 197l-260 -197z" />
<glyph unicode="&#xce;" horiz-adv-x="471" d="M170 0l340 1419h139l-338 -1419h-141zM332 1571l346 301l203 -301l-70 -68l-166 197l-260 -197z" />
<glyph unicode="&#xe2;" horiz-adv-x="1069" d="M201 365q0 164 53 297t148.5 226t225.5 144t283 51q127 0 244 -43l-158 -637q-12 -51 -20 -96t-8 -86q0 -55 10 -104t37 -109l-137 -20q-12 25 -21.5 56.5t-13.5 64.5q-72 -70 -151 -103t-163 -33q-66 0 -125 22.5t-104 70t-72.5 122t-27.5 177.5zM336 391 q0 -84 16.5 -140t45 -90t66.5 -49.5t81 -15.5q84 0 157.5 40t139.5 114q0 55 16 127t31 129l108 438q-37 8 -67.5 12.5t-63.5 4.5q-127 0 -225 -49.5t-165.5 -129.5t-103.5 -182t-36 -209zM588 1262l346 301l203 -301l-70 -68l-166 197l-260 -197z" />
<glyph unicode="&#xee;" horiz-adv-x="481" d="M170 0l256 1059h133l-256 -1059h-133zM262 1262l346 301l203 -301l-70 -68l-166 197l-260 -197z" />
<glyph unicode="&#x102;" horiz-adv-x="1273" d="M41 0q211 381 434 741.5t438 677.5h150q51 -299 101 -646t98 -773h-144q-10 98 -21.5 194.5t-23.5 194.5h-667q-53 -94 -106.5 -190.5t-106.5 -198.5h-152zM475 508h584q-23 184 -49.5 369.5t-57.5 382.5q-125 -190 -243.5 -375t-233.5 -377zM794 1782q0 14 2.5 32 t6.5 36h86q-2 -10 -2 -18.5v-16.5q0 -57 31.5 -90t95.5 -33q55 0 91 19.5t58.5 45t33.5 52t15 41.5h86q-16 -141 -97 -207t-206 -66q-100 0 -150.5 58.5t-50.5 146.5z" />
<glyph unicode="&#x103;" horiz-adv-x="1069" d="M201 365q0 164 53 297t148.5 226t225.5 144t283 51q127 0 244 -43l-158 -637q-12 -51 -20 -96t-8 -86q0 -55 10 -104t37 -109l-137 -20q-12 25 -21.5 56.5t-13.5 64.5q-72 -70 -151 -103t-163 -33q-66 0 -125 22.5t-104 70t-72.5 122t-27.5 177.5zM336 391 q0 -84 16.5 -140t45 -90t66.5 -49.5t81 -15.5q84 0 157.5 40t139.5 114q0 55 16 127t31 129l108 438q-37 8 -67.5 12.5t-63.5 4.5q-127 0 -225 -49.5t-165.5 -129.5t-103.5 -182t-36 -209zM657 1460q0 14 2.5 32t6.5 36h86q-2 -10 -2 -18.5v-16.5q0 -57 31.5 -90t95.5 -33 q55 0 91 19.5t58.5 45t33.5 52t15 41.5h86q-16 -141 -97 -207t-206 -66q-100 0 -150.5 58.5t-50.5 146.5z" />
<glyph unicode="&#x15e;" horiz-adv-x="997" d="M98 70l72 120q59 -45 144 -72.5t178 -27.5q74 0 142 17.5t122.5 55.5t87.5 96t33 140t-39 133.5t-97.5 88t-127 68.5t-127 77t-97.5 109.5t-39 168.5q0 74 31 147t95.5 130t161.5 93t230 36q88 0 167 -17.5t171 -62.5l-71 -117q-72 43 -142.5 60.5t-148.5 17.5 q-68 0 -130.5 -15.5t-111.5 -47t-78.5 -83.5t-29.5 -126q0 -82 38.5 -133.5t98 -88t127 -68.5t127 -76t98.5 -111.5t39 -175.5q0 -76 -28.5 -150t-88 -134.5t-154 -100t-223.5 -48.5q-10 -14 -18 -27.5t-14 -23.5q47 -27 68.5 -54.5t21.5 -76.5q0 -84 -64.5 -129t-163.5 -45 q-35 0 -68.5 4t-74.5 21l37 88q45 -18 100 -19q47 0 76 14.5t29 49.5q0 31 -19.5 49t-77.5 41q10 23 30 50.5t38 55.5q-88 4 -173 29t-157 70z" />
<glyph unicode="&#x15f;" horiz-adv-x="819" d="M98 47l58 121q76 -41 133 -55.5t129 -14.5q51 0 98 11.5t82 34t55.5 59.5t20.5 86q0 53 -30 87t-74 59.5t-95 49t-95 57t-74 84t-30 128.5q0 88 33 150.5t88.5 102.5t127 58t147.5 18q66 0 130 -11t124 -34l-54 -118q-43 18 -98 29.5t-115 11.5q-49 0 -95 -10.5t-82 -33 t-57.5 -58.5t-21.5 -89t30 -87t74 -59.5t95 -49t95 -56.5t74 -80t30 -121q0 -82 -28 -142t-74 -102t-108.5 -64.5t-129.5 -28.5q-10 -16 -20.5 -31t-16.5 -27q47 -27 68.5 -54.5t21.5 -76.5q0 -84 -64.5 -129t-162.5 -45q-35 0 -69 4t-75 21l37 88q45 -18 101 -19 q47 0 75.5 14.5t28.5 49.5q0 31 -19.5 49t-76.5 41q12 23 31.5 53.5t39.5 58.5q-70 4 -137 20.5t-125 49.5z" />
<glyph unicode="&#x162;" horiz-adv-x="1069" d="M254 -358l37 88q45 -18 100 -19q47 0 76 14.5t29 49.5q0 31 -19.5 49t-77.5 41q14 29 41 67.5t49 67.5h-22l311 1298h-434l27 121h1007l-28 -121h-432l-312 -1298h-18q-16 -20 -29.5 -40.5t-23.5 -37.5q47 -27 68.5 -54.5t21.5 -76.5q0 -84 -64.5 -129t-163.5 -45 q-35 0 -68.5 4t-74.5 21z" />
<glyph unicode="&#x163;" horiz-adv-x="772" d="M215 -358l37 88q45 -18 100 -19q47 0 76 14.5t29 49.5q0 31 -19.5 49t-77.5 41q12 25 33 55.5t41 59.5q-43 6 -80 21t-64.5 45t-43 73t-15.5 104q0 88 29 203l227 944l140 25l-80 -336h373l-27 -115h-375l-125 -518q-10 -37 -17 -79t-7 -83q0 -92 45 -129t112 -37 q66 0 114 14.5t101 39.5l13 -121q-47 -20 -105.5 -34.5t-118.5 -19.5q-10 -16 -19 -30.5t-15 -24.5q47 -27 68.5 -54.5t21.5 -76.5q0 -84 -64.5 -129t-163.5 -45q-35 0 -68.5 4t-74.5 21z" />
<glyph unicode="&#x218;" horiz-adv-x="997" d="M98 70l72 120q59 -45 144 -72.5t178 -27.5q74 0 142 17.5t122.5 55.5t87.5 96t33 140t-39 133.5t-97.5 88t-127 68.5t-127 77t-97.5 109.5t-39 168.5q0 74 31 147t95.5 130t161.5 93t230 36q88 0 167 -17.5t171 -62.5l-71 -117q-72 43 -142.5 60.5t-148.5 17.5 q-68 0 -130.5 -15.5t-111.5 -47t-78.5 -83.5t-29.5 -126q0 -82 38.5 -133.5t98 -88t127 -68.5t127 -76t98.5 -111.5t39 -175.5q0 -80 -32 -159t-100.5 -140.5t-174 -99.5t-252.5 -38q-98 0 -191.5 27t-173.5 74zM202 -373l23 88q43 -6 73.5 7.5t50 39t32 60.5t22.5 76h148 q-8 -59 -36 -114.5t-73 -96.5t-105.5 -59.5t-134.5 -0.5z" />
<glyph unicode="&#x219;" horiz-adv-x="819" d="M98 47l58 121q76 -41 133 -55.5t129 -14.5q51 0 98 11.5t82 34t55.5 59.5t20.5 86q0 53 -30 88t-74 60.5t-95 50t-95 57.5t-74 82t-30 127q0 88 33 150.5t88.5 102.5t127 58t147.5 18q66 0 130 -11t124 -34l-54 -118q-43 18 -98 29.5t-115 11.5q-49 0 -95 -10.5 t-80.5 -34t-56 -59.5t-21.5 -87q0 -53 29.5 -88t72.5 -61.5t95 -50t95 -56.5t73 -79t30 -118q0 -90 -34 -155.5t-89 -106.5t-127 -60.5t-148 -19.5q-80 0 -159.5 17.5t-145.5 54.5zM100 -373l23 88q43 -6 73.5 7.5t50 39t32 60.5t22.5 76h148q-8 -59 -36 -114.5t-73 -96.5 t-105.5 -59.5t-134.5 -0.5z" />
<glyph unicode="&#x21a;" horiz-adv-x="1077" d="M243 -373l23 88q43 -6 73.5 7.5t50 39t32 60.5t22.5 76h148q-8 -59 -36 -114.5t-73 -96.5t-105.5 -59.5t-134.5 -0.5zM348 1298l27 121h1009l-28 -121h-434l-312 -1298h-139l311 1298h-434z" />
<glyph unicode="&#x21b;" horiz-adv-x="772" d="M168 -373l23 88q43 -6 73.5 7.5t50 39t32 60.5t22.5 76h148q-8 -59 -36 -114.5t-73 -96.5t-105.5 -59.5t-134.5 -0.5zM231 223q0 88 29 203l227 944l140 25l-80 -336h373l-27 -115h-375l-125 -518q-10 -37 -17 -79t-7 -83q0 -92 45 -129t112 -37q66 0 114 14.5t101 39.5 l13 -121q-55 -23 -124 -39.5t-136 -16.5q-53 0 -100.5 12.5t-83.5 41t-57.5 76t-21.5 118.5z" />
<glyph unicode="&#x2c6;" horiz-adv-x="688" d="M328 1262l346 301l203 -301l-70 -68l-166 197l-260 -197z" />
<glyph unicode="&#x2da;" horiz-adv-x="688" d="M446 1384q0 88 58.5 141.5t138.5 53.5q39 0 75 -14.5t62.5 -40t42 -61.5t15.5 -79q0 -45 -15.5 -80.5t-42 -61t-62.5 -40t-75 -14.5q-80 0 -138.5 53t-58.5 143zM526 1384q0 -59 34 -89.5t83 -30.5t83 30.5t34 89.5q0 57 -34 89t-83 32t-83 -31.5t-34 -89.5z" />
<glyph unicode="&#x2dc;" horiz-adv-x="688" d="M338 1319q16 29 36.5 57.5t48.5 51t64.5 36t87.5 13.5q37 0 66 -12.5t55.5 -28t55 -27.5t65.5 -12q45 0 74 23.5t61 70.5l74 -47q-16 -29 -36.5 -57.5t-48.5 -50t-65 -35t-88 -13.5q-39 0 -67.5 12.5t-55 27.5t-54 27.5t-64.5 12.5q-45 0 -74 -23.5t-61 -70.5z" />
<glyph unicode="&#x400;" horiz-adv-x="1073" d="M170 0l340 1419h793l-27 -121h-658l-120 -493h585l-26 -119h-582l-141 -565h704l-24 -121h-844zM721 1771l109 119l299 -317l-72 -72z" />
<glyph unicode="&#x401;" horiz-adv-x="1073" d="M170 0l340 1419h793l-27 -121h-658l-120 -493h585l-26 -119h-582l-141 -565h704l-24 -121h-844zM716 1685q0 41 27 76t76 35q47 0 68.5 -27t21.5 -59q0 -39 -27.5 -75t-76.5 -36q-45 0 -67 25.5t-22 60.5zM1069 1685q0 41 27.5 76t76.5 35q45 0 66.5 -27t21.5 -59 q0 -39 -26.5 -75t-75.5 -36q-47 0 -68.5 25.5t-21.5 60.5z" />
<glyph unicode="&#x402;" horiz-adv-x="1443" d="M344 1298l29 121h1003l-26 -121h-461l-111 -450q152 47 287 47q104 0 180 -30.5t126 -86t73.5 -129.5t23.5 -160q0 -96 -30.5 -184t-89 -157.5t-142.5 -110.5t-190 -41q-51 0 -113 12l31 113q33 -8 74 -8q78 0 137 28.5t99 77.5t59.5 116.5t19.5 145.5q0 135 -73.5 213 t-239.5 78q-121 0 -258 -43l-174 -729h-140l312 1298h-406z" />
<glyph unicode="&#x403;" horiz-adv-x="952" d="M170 0l340 1419h754l-27 -114h-614l-314 -1305h-139zM780 1603l340 299l78 -127l-358 -262z" />
<glyph unicode="&#x404;" horiz-adv-x="1214" d="M283 535q0 215 69.5 383.5t183 287.5t258 181.5t291.5 62.5q88 0 153 -11.5t108 -25.5t67.5 -27.5t30.5 -17.5l-64 -127q-16 8 -41.5 22.5t-62.5 29t-86 23.5t-111 9q-121 0 -223 -45t-181 -120t-134.5 -172t-81.5 -204h618l-30 -118h-613q-4 -39 -5 -72t-1 -66 q0 -115 25.5 -197.5t73.5 -135t117 -77t157 -24.5q82 0 143.5 9.5t104.5 22.5t71.5 27.5t46.5 24.5l19 -123q-12 -8 -45 -22.5t-82 -28.5t-117 -24.5t-149 -10.5q-260 0 -385 147.5t-125 418.5z" />
<glyph unicode="&#x405;" horiz-adv-x="997" d="M98 70l72 120q59 -45 144 -72.5t178 -27.5q74 0 142 17.5t122.5 55.5t87.5 96t33 140t-39 133.5t-97.5 88t-127 68.5t-127 77t-97.5 109.5t-39 168.5q0 74 31 147t95.5 130t161.5 93t230 36q88 0 167 -17.5t171 -62.5l-71 -117q-72 43 -142.5 60.5t-148.5 17.5 q-68 0 -130.5 -15.5t-111.5 -47t-78.5 -83.5t-29.5 -126q0 -82 38.5 -133.5t98 -88t127 -68.5t127 -76t98.5 -111.5t39 -175.5q0 -80 -32 -159t-100.5 -140.5t-174 -99.5t-252.5 -38q-98 0 -191.5 27t-173.5 74z" />
<glyph unicode="&#x406;" horiz-adv-x="471" d="M170 0l340 1419h139l-338 -1419h-141z" />
<glyph unicode="&#x407;" horiz-adv-x="471" d="M170 0l340 1419h139l-338 -1419h-141zM370 1685q0 41 27 76t76 35q47 0 68.5 -27t21.5 -59q0 -39 -27.5 -75t-76.5 -36q-45 0 -67 25.5t-22 60.5zM723 1685q0 41 27.5 76t76.5 35q45 0 66.5 -27t21.5 -59q0 -39 -26.5 -75t-75.5 -36q-47 0 -68.5 25.5t-21.5 60.5z" />
<glyph unicode="&#x408;" horiz-adv-x="921" d="M37 88l72 107q31 -31 102.5 -66t169.5 -35q55 0 104.5 11.5t92.5 44t77.5 93t59.5 158.5l246 1018h139l-246 -1034q-29 -123 -76 -203t-108.5 -128t-136 -66.5t-158.5 -18.5q-106 0 -191.5 33t-146.5 86z" />
<glyph unicode="&#x409;" horiz-adv-x="1982" d="M37 102q68 12 125 34t108.5 66t99.5 116.5t97 187.5q57 131 108.5 321.5t116.5 462.5l31 129h723l-129 -542q51 4 101 8t91 4q229 0 353.5 -82t124.5 -256q0 -274 -174.5 -418.5t-485.5 -144.5q-39 0 -86 2t-96 7t-93 12t-77 18l307 1271h-432l-19 -75q-43 -174 -99 -374 t-128 -382q-20 -53 -58 -131t-102.5 -152.5t-161 -131t-233.5 -66.5zM1137 123q16 -4 69.5 -9t112.5 -5q86 0 180 16t171 64.5t127 133.5t50 220q0 70 -28.5 113.5t-77.5 68.5t-113.5 34t-134.5 9q-98 0 -148.5 -4t-56.5 -8z" />
<glyph unicode="&#x40a;" horiz-adv-x="2027" d="M170 0l340 1419h139l-143 -579h706l140 579h139l-129 -542q51 4 101 8t91 4q229 0 353.5 -82t124.5 -256q0 -274 -174.5 -418.5t-485.5 -144.5q-39 0 -86 2t-96 7t-93 12t-77 18l164 692h-703l-172 -719h-139zM1176 115q16 -4 63 -8.5t117 -4.5q92 0 186 19.5t171 69 t126 134.5t49 218q0 70 -31.5 112.5t-81 67.5t-107.5 34t-112 9q-25 0 -55.5 -1t-63 -3t-61 -5t-47.5 -7z" />
<glyph unicode="&#x40b;" horiz-adv-x="1460" d="M373 1298l28 121h1004l-27 -121h-460l-111 -452q74 23 153.5 33t147.5 10q176 0 255 -74t79 -209q0 -72 -23 -172l-104 -434h-139l102 424q10 41 16 80t6 74q0 43 -12 77.5t-40.5 59t-75.5 38t-119 13.5q-59 0 -132 -10.5t-143 -30.5l-172 -725h-139l311 1298h-405z" />
<glyph unicode="&#x40c;" horiz-adv-x="1226" d="M170 0l340 1419h137l-155 -653q100 72 217.5 164t230.5 184t208 173t150 132h185q-68 -61 -172.5 -149t-221 -182.5t-234.5 -187.5t-212 -167q74 -55 154 -144t154.5 -191.5t138 -207t100.5 -190.5h-152q-119 229 -255 409.5t-306 303.5l-168 -713h-139zM809 1603 l340 299l78 -127l-358 -262z" />
<glyph unicode="&#x40d;" horiz-adv-x="1363" d="M170 0l342 1419h133l-283 -1173q51 70 127 163t166 199.5t189.5 219t200 219t195.5 203t177 169.5h125l-342 -1419h-133l285 1190q-66 -59 -152 -150.5t-183 -199t-198.5 -224t-196 -229.5t-176 -213t-139.5 -174h-137zM805 1783l109 119l299 -317l-72 -72z" />
<glyph unicode="&#x40e;" horiz-adv-x="1075" d="M72 16l47 117q12 -8 47 -19.5t88 -11.5q66 0 120 21.5t100 56.5t86 82t75 98q-53 154 -94 300.5t-73 280.5t-55.5 255t-39.5 223h147q23 -188 69 -422.5t138 -496.5q68 96 136.5 206.5t136 229.5t132 241.5t123.5 241.5h148q-78 -150 -147.5 -276.5t-139 -243.5 t-140.5 -230.5t-151 -232.5q-53 -78 -111.5 -158.5t-132 -146t-163.5 -107.5t-205 -42q-35 0 -80 12t-61 22zM694 1802l115 28q-4 -70 29.5 -113.5t119.5 -43.5q70 0 120 44t79 113l102 -28q-47 -117 -124.5 -180.5t-204.5 -63.5q-115 0 -179.5 63.5t-56.5 180.5z" />
<glyph unicode="&#x40f;" horiz-adv-x="1331" d="M170 0l340 1419h139l-311 -1298h721l311 1298h139l-340 -1419h-432l-92 -379h-133l92 379h-434z" />
<glyph unicode="&#x410;" horiz-adv-x="1273" d="M41 0q211 381 434 741.5t438 677.5h150q51 -299 101 -646t98 -773h-144q-10 98 -21.5 194.5t-23.5 194.5h-667q-53 -94 -106.5 -190.5t-106.5 -198.5h-152zM475 508h584q-23 184 -49.5 369.5t-57.5 382.5q-125 -190 -243.5 -375t-233.5 -377z" />
<glyph unicode="&#x411;" horiz-adv-x="1200" d="M170 27l334 1392h794l-26 -121h-660l-104 -430h199q111 0 201.5 -18.5t155 -59t100.5 -105t36 -159.5q0 -256 -172 -398t-493 -142q-41 0 -89.5 3t-97.5 8t-96 12t-82 18zM330 123q6 -2 27.5 -4t48 -4t55 -4t49.5 -2q94 0 192.5 16t176 61t128 125t50.5 207q0 76 -32 121 t-83 69.5t-116.5 33t-131.5 8.5h-213z" />
<glyph unicode="&#x412;" horiz-adv-x="1222" d="M170 27l328 1366q66 16 155.5 28.5t186.5 12.5q88 0 172 -14.5t150.5 -51.5t106.5 -99.5t40 -156.5q0 -70 -24.5 -129t-64.5 -105.5t-93.5 -80t-110.5 -52.5q47 -12 85 -38.5t63.5 -62.5t40 -80t14.5 -89q0 -145 -59.5 -239.5t-156 -149.5t-220.5 -76.5t-255 -21.5 q-98 0 -189 11t-169 28zM330 121q43 -8 94 -11.5t108 -3.5q100 0 197.5 14.5t173.5 54.5t122 109.5t46 182.5q0 121 -82 167t-268 46h-260zM492 799h190q258 0 369.5 78.5t111.5 209.5q0 123 -87 174.5t-265 51.5q-55 0 -106.5 -4t-90.5 -11z" />
<glyph unicode="&#x413;" horiz-adv-x="952" d="M170 0l340 1419h754l-27 -114h-614l-314 -1305h-139z" />
<glyph unicode="&#x414;" horiz-adv-x="1312" d="M-66 -379l121 500h109q129 104 222 254.5t158.5 320.5t111.5 345.5t81 332.5l11 45h725l-310 -1298h144l-121 -500h-133l92 379h-989l-93 -379h-129zM348 121h676l283 1177h-453l-6 -28q-25 -117 -64 -269.5t-98 -311.5t-142 -308.5t-196 -259.5z" />
<glyph unicode="&#x415;" horiz-adv-x="1073" d="M170 0l340 1419h793l-27 -121h-658l-120 -493h585l-26 -119h-582l-141 -565h704l-24 -121h-844z" />
<glyph unicode="&#x416;" horiz-adv-x="1589" d="M20 0q57 90 136.5 188.5t173.5 196.5t198.5 191.5t214.5 175.5q-98 168 -191 333.5t-187 333.5h155q88 -166 183.5 -341t185.5 -324l160 665h131l-160 -665q100 86 204.5 181t198 185t171 169t124.5 130h158q-29 -33 -77 -83t-109.5 -111.5t-132 -129t-141 -132 t-136.5 -124t-119 -104.5q154 -180 249 -367.5t167 -367.5h-154q-25 84 -74 186.5t-108 200.5t-120.5 183t-110.5 135l-172 -705h-131l170 705q-72 -47 -164 -127t-187.5 -176.5t-187.5 -201t-166 -200.5h-152z" />
<glyph unicode="&#x417;" horiz-adv-x="1064" d="M78 61l67 121q12 -10 40 -25.5t68 -29.5t93 -25.5t117 -11.5q94 0 179 18.5t148.5 61.5t100.5 111.5t37 169.5q0 76 -32 124t-85 74.5t-123 35.5t-145 9h-86l28 119h111q80 0 157.5 21.5t138 61.5t98.5 99.5t38 134.5q0 43 -11 79t-40 62.5t-78 42t-125 15.5 q-72 0 -126 -8t-94 -19.5t-66.5 -23.5t-45.5 -21l-20 109q16 12 56 26.5t90 28t105.5 21.5t100.5 8q86 0 160 -17.5t126 -55.5t81.5 -98t29.5 -144q0 -82 -32.5 -144.5t-81.5 -108.5t-109.5 -76t-116.5 -44q45 -14 88.5 -37t77 -58.5t54 -87t20.5 -118.5q0 -143 -52 -237.5 t-138 -151t-198 -80t-228 -23.5q-80 0 -144.5 11.5t-112.5 25.5t-78 29.5t-42 25.5z" />
<glyph unicode="&#x418;" horiz-adv-x="1363" d="M170 0l342 1419h133l-283 -1173q51 70 127 163t166 199.5t189.5 219t200 219t195.5 203t177 169.5h125l-342 -1419h-133l285 1190q-66 -59 -152 -150.5t-183 -199t-198.5 -224t-196 -229.5t-176 -213t-139.5 -174h-137z" />
<glyph unicode="&#x419;" horiz-adv-x="1363" d="M170 0l342 1419h133l-283 -1173q51 70 127 163t166 199.5t189.5 219t200 219t195.5 203t177 169.5h125l-342 -1419h-133l285 1190q-66 -59 -152 -150.5t-183 -199t-198.5 -224t-196 -229.5t-176 -213t-139.5 -174h-137zM821 1802l115 28q-4 -70 29.5 -113.5t119.5 -43.5 q70 0 120 44t79 113l102 -28q-47 -117 -124.5 -180.5t-204.5 -63.5q-115 0 -179.5 63.5t-56.5 180.5z" />
<glyph unicode="&#x41a;" horiz-adv-x="1226" d="M170 0l340 1419h137l-155 -653q100 72 217.5 164t230.5 184t208 173t150 132h185q-68 -61 -172.5 -149t-221 -182.5t-234.5 -187.5t-212 -167q74 -55 154 -144t154.5 -191.5t138 -207t100.5 -190.5h-152q-119 229 -255 409.5t-306 303.5l-168 -713h-139z" />
<glyph unicode="&#x41b;" horiz-adv-x="1277" d="M37 102q68 12 125 34t107 67t98.5 116.5t99.5 186.5q33 76 62.5 157.5t60.5 187t64.5 243t76.5 325.5h725l-342 -1419h-139l311 1298h-438q-57 -229 -114.5 -439t-129.5 -392q-20 -53 -58 -131t-102.5 -152.5t-161 -131t-233.5 -66.5z" />
<glyph unicode="&#x41c;" horiz-adv-x="1701" d="M139 0q104 383 218 741.5t218 677.5h140q31 -123 62.5 -262t60 -279.5t52 -272.5t40.5 -240q76 117 170 259t190 285.5t188.5 276.5t166.5 233h143q-18 -186 -43 -363t-52.5 -351.5t-59 -349.5t-66.5 -355h-144q72 334 124 637t91 573q-31 -39 -85 -115.5t-119.5 -173 t-136 -203t-136 -205.5t-119 -180t-81.5 -128h-123q-8 57 -22.5 141t-32 180.5t-37 198.5t-39 195.5t-37 169t-29.5 122.5q-90 -270 -182 -579t-180 -633h-140z" />
<glyph unicode="&#x41d;" horiz-adv-x="1341" d="M170 0l340 1419h139l-151 -616h735l147 616h140l-338 -1419h-140l164 682h-733l-164 -682h-139z" />
<glyph unicode="&#x41e;" horiz-adv-x="1531" d="M283 528q0 211 69.5 382t184 291t259 184.5t296.5 64.5q100 0 192 -34t162 -102.5t110.5 -174t40.5 -246.5q0 -213 -69.5 -384t-184 -291t-260 -184.5t-295.5 -64.5q-102 0 -193 34t-160.5 102.5t-110.5 174t-41 248.5zM430 506q0 -104 28.5 -182t80 -128.5t118 -76 t144.5 -25.5q125 0 241.5 54.5t206.5 159t145.5 257t55.5 348.5q0 104 -28.5 182.5t-80 128.5t-119 75.5t-143.5 25.5q-125 0 -241.5 -54t-207.5 -158.5t-145.5 -257t-54.5 -349.5z" />
<glyph unicode="&#x41f;" horiz-adv-x="1310" d="M170 0l340 1419h979l-342 -1419h-139l313 1298h-700l-312 -1298h-139z" />
<glyph unicode="&#x420;" horiz-adv-x="1157" d="M170 0l334 1393q78 16 167 27.5t181 11.5q244 0 358.5 -92.5t114.5 -266.5q0 -115 -46 -211t-133 -165.5t-216 -108.5t-295 -39h-193l-133 -549h-139zM469 670h184q250 0 387.5 102t137.5 283q0 133 -86 194.5t-271 61.5q-53 0 -105 -5.5t-95 -9.5z" />
<glyph unicode="&#x421;" horiz-adv-x="1249" d="M283 518q0 219 67.5 392t182 293t264 183.5t313.5 63.5q96 0 179 -20.5t169 -67.5l-63 -127q-147 90 -314 90q-129 0 -246.5 -56.5t-207.5 -160.5t-143.5 -252.5t-53.5 -333.5q0 -209 90 -318.5t277 -109.5q82 0 145.5 10.5t109.5 24.5t77.5 29.5t54.5 27.5l18 -123 q-84 -45 -190.5 -69.5t-210.5 -24.5q-115 0 -210 32t-164 98.5t-106.5 170t-37.5 248.5z" />
<glyph unicode="&#x422;" horiz-adv-x="1077" d="M348 1298l27 121h1009l-28 -121h-434l-312 -1298h-139l311 1298h-434z" />
<glyph unicode="&#x423;" horiz-adv-x="1075" d="M72 16l47 117q12 -8 47 -19.5t88 -11.5q66 0 120 21.5t100 56.5t86 82t75 98q-53 154 -94 300.5t-73 280.5t-55.5 255t-39.5 223h147q23 -188 69 -422.5t138 -496.5q68 96 136.5 206.5t136 229.5t132 241.5t123.5 241.5h148q-78 -150 -147.5 -276.5t-139 -243.5 t-140.5 -230.5t-151 -232.5q-53 -78 -111.5 -158.5t-132 -146t-163.5 -107.5t-205 -42q-35 0 -80 12t-61 22z" />
<glyph unicode="&#x424;" horiz-adv-x="1650" d="M262 649q0 123 52.5 246t153.5 223.5t252.5 162.5t348.5 62l41 168h135l-41 -168q139 -8 240.5 -44.5t166 -98t95.5 -142.5t31 -177q0 -133 -58.5 -261t-165 -228.5t-256 -160t-331.5 -55.5l-43 -176h-135l43 176q-135 0 -234.5 38t-165 102.5t-97.5 150.5t-32 182z M401 641q0 -78 25 -142.5t75 -110.5t129 -71.5t187 -25.5l225 938q-150 0 -268.5 -53.5t-201.5 -138.5t-127 -189.5t-44 -206.5zM952 291q152 4 271.5 57t202.5 136t127 185.5t44 207.5q0 166 -106.5 259t-312.5 93z" />
<glyph unicode="&#x425;" horiz-adv-x="1126" d="M20 0l646 750l-289 669h151l244 -575q133 152 250 296t215 279h156q-143 -186 -281.5 -350t-286.5 -328q74 -178 154 -365.5t149 -375.5h-151q-20 63 -48 138t-60.5 158t-69.5 170t-76 173l-535 -639h-168z" />
<glyph unicode="&#x426;" horiz-adv-x="1357" d="M170 0l340 1419h139l-311 -1298h729l311 1298h140l-312 -1298h144l-121 -500h-133l92 379h-1018z" />
<glyph unicode="&#x427;" horiz-adv-x="1150" d="M313 848q0 82 25 184l96 387h139l-100 -405q-10 -41 -15 -76t-5 -70q0 -104 62.5 -166.5t209.5 -62.5q84 0 164 18.5t125 30.5l176 731h139l-342 -1419h-139l137 567q-18 -8 -55 -17t-79 -16.5t-84 -12.5t-73 -5q-195 0 -288 86t-93 246z" />
<glyph unicode="&#x428;" horiz-adv-x="1892" d="M170 0l340 1419h139l-311 -1298h571l312 1298h139l-311 -1298h571l311 1298h140l-338 -1419h-1563z" />
<glyph unicode="&#x429;" horiz-adv-x="1910" d="M170 0l340 1419h139l-311 -1298h571l312 1298h139l-311 -1298h571l311 1298h140l-312 -1298h144l-121 -500h-133l92 379h-1571z" />
<glyph unicode="&#x42a;" horiz-adv-x="1388" d="M324 1298l28 121h473l-129 -542q66 4 109 8t84 4q113 0 206 -17.5t158.5 -57.5t102.5 -104.5t37 -158.5q0 -164 -60.5 -272.5t-157 -173t-218 -91t-246.5 -26.5q-43 0 -92.5 3t-97.5 7t-92 11t-77 18l305 1271h-333zM514 123q16 -2 68.5 -8t130.5 -6q94 0 190 16 t174 63.5t127 130t49 218.5q0 74 -28.5 118.5t-79.5 70.5t-119 34t-143 8q-106 0 -150.5 -5t-64.5 -7z" />
<glyph unicode="&#x42b;" horiz-adv-x="1587" d="M170 27l334 1392h139l-129 -542q61 4 102 8t82 4q106 0 195.5 -17.5t153 -57.5t98.5 -104.5t35 -158.5q0 -164 -57.5 -272.5t-151.5 -173t-212 -91t-239 -26.5q-43 0 -91 3t-95 7t-89 11t-75 18zM332 123q16 -2 66.5 -8t123.5 -6q90 0 182.5 16t167 63.5t121.5 130 t47 218.5q0 74 -27.5 118.5t-74.5 70.5t-110.5 34t-135.5 8q-51 0 -86 -2t-58.5 -4t-37.5 -4t-25 -2zM1284 0l342 1419h139l-342 -1419h-139z" />
<glyph unicode="&#x42c;" horiz-adv-x="1206" d="M170 27l334 1392h139l-129 -542q66 4 109 8t84 4q113 0 206 -17.5t158.5 -57.5t102 -104.5t36.5 -158.5q0 -164 -60 -272.5t-156.5 -173t-218.5 -91t-247 -26.5q-43 0 -92 3t-97 7t-92 11t-77 18zM332 123q16 -2 68.5 -8t129.5 -6q94 0 190.5 16t174.5 63.5t127 130 t49 218.5q0 74 -28.5 118.5t-80 70.5t-119 34t-143.5 8q-106 0 -150 -5t-65 -7z" />
<glyph unicode="&#x42d;" horiz-adv-x="1175" d="M68 49l67 129q41 -27 114 -55.5t177 -28.5q143 0 251.5 50.5t187.5 131t128 183t74 209.5h-606l28 118h598q6 55 7 109q0 205 -90.5 317.5t-301.5 112.5q-90 0 -163.5 -15.5t-143.5 -45.5l-10 120q25 10 55.5 21.5t72.5 22t97.5 16.5t126.5 6q240 0 372 -143.5 t132 -407.5q0 -170 -50 -337t-153.5 -299t-261.5 -213t-373 -81q-115 0 -204.5 28t-130.5 52z" />
<glyph unicode="&#x42e;" horiz-adv-x="1998" d="M170 0l340 1419h139l-151 -616h366q37 152 113 271.5t174 203.5t214 128t234 44q92 0 177.5 -34t149 -102.5t101 -174t37.5 -246.5q0 -213 -66.5 -384t-175 -291t-245.5 -184.5t-281 -64.5q-92 0 -177 34t-148.5 102.5t-101.5 174t-38 248.5q0 41 3.5 79t7.5 75h-369 l-164 -682h-139zM979 506q0 -104 25.5 -182t70.5 -128.5t105.5 -76t128.5 -25.5q117 0 226.5 54.5t194.5 159t136 257t51 348.5q0 104 -25.5 182.5t-70.5 128.5t-105.5 75.5t-128.5 25.5q-117 0 -226.5 -54t-194.5 -158.5t-136 -257t-51 -349.5z" />
<glyph unicode="&#x42f;" horiz-adv-x="1167" d="M57 0q51 76 113.5 160t125 166t122 156.5t108.5 131.5q-41 10 -79.5 32t-68.5 56.5t-47.5 85t-17.5 117.5q0 123 50.5 221.5t139.5 166t211 104.5t263 37q41 0 92 -3.5t102.5 -8.5t97.5 -12t77 -17l-330 -1393h-139l137 573h-217q-74 0 -131 7q-47 -51 -106.5 -121 t-121 -148t-122 -158.5t-111.5 -152.5h-148zM455 913q0 -72 25.5 -115.5t72.5 -67t113.5 -31t148.5 -7.5h225l146 604q-10 2 -76 8.5t-141 6.5q-88 0 -179.5 -18.5t-166 -63.5t-121.5 -122t-47 -194z" />
<glyph unicode="&#x430;" horiz-adv-x="1069" d="M201 365q0 164 53 297t148.5 226t225.5 144t283 51q127 0 244 -43l-158 -637q-12 -51 -20 -96t-8 -86q0 -55 10 -104t37 -109l-137 -20q-12 25 -21.5 56.5t-13.5 64.5q-72 -70 -151 -103t-163 -33q-66 0 -125 22.5t-104 70t-72.5 122t-27.5 177.5zM336 391 q0 -84 16.5 -140t45 -90t66.5 -49.5t81 -15.5q84 0 157.5 40t139.5 114q0 55 16 127t31 129l108 438q-37 8 -67.5 12.5t-63.5 4.5q-127 0 -225 -49.5t-165.5 -129.5t-103.5 -182t-36 -209z" />
<glyph unicode="&#x431;" horiz-adv-x="1081" d="M221 352q0 70 11.5 156t31.5 162q49 186 104.5 336.5t142.5 261t221 180.5t341 96q86 10 134 22.5t83 22.5l-6 -121q-23 -8 -74 -21.5t-129 -19.5q-131 -10 -226 -48t-166 -100t-119 -147t-85 -188q55 37 103.5 57.5t89.5 31.5t72.5 13.5t54.5 2.5q84 0 144.5 -31t98 -82 t56 -114.5t18.5 -127.5q0 -61 -11 -139t-36.5 -158t-67.5 -155.5t-104.5 -135t-146.5 -95.5t-195 -36q-90 0 -154.5 32t-105.5 85t-60.5 121t-19.5 139zM365 377q0 -131 46 -206t179 -75q100 0 173 56.5t121 142.5t71.5 187.5t23.5 191.5q0 55 -10.5 101t-35 80t-67 53.5 t-110.5 19.5q-23 0 -55.5 -5t-74.5 -19.5t-89.5 -41t-96.5 -67.5q-33 -111 -54 -212.5t-21 -205.5z" />
<glyph unicode="&#x432;" horiz-adv-x="1056" d="M150 25l163 682q47 201 168 290.5t291 89.5q164 0 242 -66.5t78 -184.5q0 -63 -15.5 -109.5t-42 -78.5t-62.5 -53.5t-79 -37.5q86 -29 124 -82t38 -149q0 -61 -22.5 -123t-81 -112t-158 -82t-250.5 -32q-111 0 -214.5 12.5t-178.5 35.5zM305 115q31 -6 88.5 -13.5 t147.5 -7.5q72 0 140.5 10.5t121.5 37t86 74.5t33 122q0 61 -31 95t-79 49.5t-108.5 18.5t-121.5 3h-185zM424 614h180q68 0 131.5 7.5t113.5 32t79.5 69.5t29.5 123q0 63 -50 96t-136 33q-49 0 -99 -13.5t-93 -41t-76 -70.5t-47 -100z" />
<glyph unicode="&#x433;" horiz-adv-x="798" d="M139 219q0 113 47 181.5t119 111.5t154 70.5t153.5 57.5t118.5 72t47 115q0 37 -14 62.5t-39 41t-57.5 23t-67.5 7.5q-37 0 -74 -5.5t-70.5 -14.5t-63.5 -19.5t-48 -18.5l-10 121q59 29 130 44t138 15q59 0 114.5 -13t97.5 -44t66.5 -79t24.5 -118q0 -100 -47 -160.5 t-118.5 -99.5t-153.5 -65.5t-154 -59t-119 -80t-47 -128.5q0 -39 17.5 -66t48 -42t69.5 -22.5t82 -7.5t86 5.5t82 14.5t71 20.5t50 23.5l8 -125q-63 -29 -145 -45.5t-156 -16.5q-70 0 -132 12.5t-108 42t-73 76t-27 113.5z" />
<glyph unicode="&#x434;" horiz-adv-x="1067" d="M221 344q0 121 27.5 247t90 228.5t165 168t252.5 65.5q63 0 128.5 -18.5t106.5 -47.5q-16 250 -110.5 366.5t-292.5 116.5q-53 0 -94 -8t-58 -16l-12 119q14 6 61 15t133 9q248 0 376 -169t128 -515q0 -68 -6 -162t-26.5 -197.5t-59.5 -205.5t-103.5 -183t-158.5 -131.5 t-227 -50.5q-84 0 -143.5 30t-99.5 80t-58.5 116.5t-18.5 142.5zM352 336q0 -123 55.5 -182.5t159.5 -59.5q111 0 192 73t133 185.5t77.5 247.5t25.5 262v4q-35 23 -92 45.5t-149 22.5q-98 0 -173 -45t-126.5 -125t-77 -189.5t-25.5 -238.5z" />
<glyph unicode="&#x435;" horiz-adv-x="999" d="M201 365q0 131 40 260t117.5 231t191.5 164.5t259 62.5q143 0 220 -74.5t77 -197.5q0 -115 -56.5 -186.5t-157.5 -113.5t-243.5 -60.5t-316.5 -26.5v-43q0 -59 12 -110.5t45 -89.5t91.5 -60.5t150.5 -22.5q72 0 144.5 20.5t137.5 61.5l15 -123q-70 -39 -154 -60.5 t-170 -21.5q-113 0 -189.5 29t-124.5 80t-68.5 123t-20.5 158zM352 545q174 4 293 22.5t191.5 51t103.5 78.5t31 106q0 80 -48 120t-126 40q-82 0 -154 -34t-129 -91.5t-99 -133t-63 -159.5z" />
<glyph unicode="&#x436;" horiz-adv-x="1689" d="M47 4l37 117q29 -16 52.5 -19.5t49.5 -3.5q98 0 169 50.5t115 135.5t65.5 194.5t21.5 230.5q0 47 -7 92t-25.5 79.5t-51.5 56t-82 21.5q-35 0 -80 -12l-10 113q68 18 121 18q135 0 198.5 -97t63.5 -253q0 -66 -6 -121h246l108 453h133l-108 -453h231q20 98 60.5 183 t99.5 150t140 101.5t186 36.5q27 0 54 -5t50 -15l-39 -115q-23 8 -39 11t-43 3q-104 0 -175 -56t-114 -144t-61 -194.5t-18 -207.5q0 -49 5 -95t24.5 -82t56 -58.5t100.5 -22.5q43 0 63.5 4t36.5 13l8 -111q-14 -6 -54 -15.5t-89 -9.5q-72 0 -125 29t-87 78t-50 113.5 t-16 136.5q0 41 2 80t6 80h-240l-119 -494h-133l119 494h-231q-23 -135 -71 -232.5t-111.5 -161t-139.5 -93.5t-156 -30q-76 0 -141 27z" />
<glyph unicode="&#x437;" horiz-adv-x="849" d="M78 23l41 118q12 -6 31.5 -13t49 -15.5t71.5 -13.5t100 -5q55 0 115.5 11.5t109.5 40t81 76.5t32 124q0 51 -27 81t-64.5 46t-83 21.5t-81.5 5.5h-93l27 112h94q45 0 98.5 8.5t98.5 32t74.5 66.5t29.5 112q0 37 -16 63t-44 41t-64.5 21.5t-75.5 6.5q-72 0 -142.5 -11.5 t-117.5 -33.5l-11 118q57 18 129 31.5t144 13.5q63 0 123.5 -12t106.5 -42t73.5 -79t27.5 -121q0 -92 -56 -161.5t-169 -108.5q74 -27 113 -81t39 -122q0 -100 -39 -171.5t-105.5 -118t-157.5 -68t-196 -21.5q-92 0 -165 16.5t-101 31.5z" />
<glyph unicode="&#x438;" horiz-adv-x="1069" d="M201 272q0 59 10 126t27 134l127 527h133l-113 -467q-16 -72 -35.5 -151t-19.5 -150q0 -41 9 -76t31.5 -61.5t59.5 -41t94 -14.5q98 0 173 39t141 113q0 55 16 127t31 129l137 553h133l-162 -656q-12 -51 -20 -96t-8 -86q0 -55 10 -104t37 -109l-138 -20q-12 25 -21 56.5 t-13 64.5q-72 -70 -153 -102t-179 -32q-88 0 -147.5 22.5t-94.5 62.5t-50 94.5t-15 117.5z" />
<glyph unicode="&#x439;" horiz-adv-x="1069" d="M201 272q0 59 10 126t27 134l127 527h133l-113 -467q-16 -72 -35.5 -151t-19.5 -150q0 -41 9 -76t31.5 -61.5t59.5 -41t94 -14.5q98 0 173 39t141 113q0 55 16 127t31 129l137 553h133l-162 -656q-12 -51 -20 -96t-8 -86q0 -55 10 -104t37 -109l-138 -20q-12 25 -21 56.5 t-13 64.5q-72 -70 -153 -102t-179 -32q-88 0 -147.5 22.5t-94.5 62.5t-50 94.5t-15 117.5zM557 1483l115 28q-4 -70 29.5 -113.5t119.5 -43.5q70 0 120 44t79 113l102 -28q-47 -117 -124.5 -180.5t-204.5 -63.5q-115 0 -179.5 63.5t-56.5 180.5z" />
<glyph unicode="&#x43a;" horiz-adv-x="1032" d="M170 0l256 1059h133l-108 -449q74 49 153.5 111.5t153 125t133 119t92.5 93.5h162q-37 -47 -108.5 -116t-154.5 -139.5t-161 -131t-127 -88.5q70 -53 140.5 -125t131 -151t107.5 -158.5t71 -149.5h-143q-90 193 -213 331t-250 224l-135 -555h-133z" />
<glyph unicode="&#x43b;" horiz-adv-x="1075" d="M57 92q106 6 176 72.5t119 175.5t84 252t72 305l37 162h637l-254 -1059h-133l225 946h-365l-10 -41q-27 -106 -51.5 -214.5t-55 -209t-69.5 -188.5t-95.5 -154.5t-133 -108.5t-181.5 -48z" />
<glyph unicode="&#x43c;" horiz-adv-x="1339" d="M119 0q74 262 160 531.5t176 527.5h137q41 -162 78 -350.5t82 -411.5q88 137 168.5 260t146.5 222.5t116 171t77 108.5h135q-8 -109 -24.5 -246t-37 -279.5t-44 -281.5t-44.5 -252h-127q37 193 71 408t68 464q-74 -109 -132 -196.5t-110 -169.5t-105.5 -168t-118.5 -191 h-125q-20 98 -38 187.5t-35.5 177.5t-35.5 176t-43 182q-45 -127 -82 -241.5t-69.5 -222t-62.5 -208t-56 -198.5h-125z" />
<glyph unicode="&#x43d;" horiz-adv-x="1095" d="M170 0l254 1059h133l-108 -453h512l108 453h133l-254 -1059h-133l117 494h-512l-117 -494h-133z" />
<glyph unicode="&#x43e;" horiz-adv-x="1077" d="M201 332q0 193 54 334t139 233t188.5 137t203.5 45q72 0 136.5 -22.5t113.5 -67.5t78 -111.5t29 -152.5q0 -193 -54.5 -334t-139.5 -234t-188.5 -138.5t-203.5 -45.5q-72 0 -136.5 22.5t-113.5 68t-77.5 112t-28.5 154.5zM336 340q0 -121 67.5 -182.5t161.5 -61.5 q74 0 152 38t142.5 115t106.5 193.5t42 274.5q0 121 -68 182.5t-162 61.5q-74 0 -151.5 -38t-142 -115t-106.5 -193.5t-42 -274.5z" />
<glyph unicode="&#x43f;" horiz-adv-x="1118" d="M170 0l244 1022q80 23 170 40t178 17q74 0 139.5 -15t114.5 -54t77.5 -102.5t28.5 -157.5q0 -53 -8 -109.5t-22 -114.5l-127 -526h-134l113 471q16 68 29.5 137.5t15.5 132.5q0 63 -19.5 104.5t-53 66t-78.5 34.5t-95 10q-53 0 -108 -8t-109 -20l-223 -928h-133z" />
<glyph unicode="&#x440;" horiz-adv-x="1062" d="M78 -379l336 1395q86 31 172 49t170 18q373 0 372 -389q0 -137 -45 -266t-132 -228.5t-213 -158.5t-287 -59q-80 0 -148 18l-90 -379h-135zM336 123q63 -18 129 -19q127 0 225 50.5t166 131.5t102.5 182t34.5 206q0 154 -67.5 224.5t-202.5 70.5q-47 0 -95 -8.5 t-100 -22.5z" />
<glyph unicode="&#x441;" horiz-adv-x="931" d="M201 375q0 139 43 267t126 226.5t203.5 156.5t274.5 58q106 0 211 -34l-55 -121q-47 18 -93.5 25.5t-89.5 7.5q-109 0 -197.5 -46.5t-152 -125t-98.5 -182t-35 -218.5q0 -135 62.5 -213t199.5 -78q43 0 87 8.5t81 19.5t65.5 23.5t43.5 22.5l14 -121q-41 -27 -126 -51.5 t-190 -24.5q-186 0 -280 106.5t-94 293.5z" />
<glyph unicode="&#x442;" horiz-adv-x="1681" d="M170 0l244 1022q31 10 69.5 20.5t81.5 18.5t88 13t86 5q86 0 157 -23.5t118 -84.5q104 61 183 84.5t155 23.5q70 0 130 -15t105 -52t72 -100.5t27 -161.5q0 -53 -8.5 -109.5t-22.5 -114.5l-127 -526h-133l112 471q16 68 30.5 137.5t14.5 132.5t-16 105.5t-46 67t-69 33.5 t-84 9q-43 0 -111.5 -15t-164.5 -77q12 -53 12 -114q0 -53 -8 -109.5t-23 -114.5l-127 -526h-133l113 471q16 68 30.5 137.5t14.5 132.5t-16.5 105.5t-46 67t-68.5 33.5t-84 9q-47 0 -100.5 -8t-98.5 -20l-223 -928h-133z" />
<glyph unicode="&#x443;" horiz-adv-x="925" d="M-121 -348l47 110q55 -31 125 -30q104 0 204.5 57t186.5 174q-86 272 -135 553t-57 543h139q4 -98 13.5 -215t28 -244t45 -259t65.5 -257q92 145 165.5 293.5t129 279.5t91.5 236.5t52 165.5h131q-12 -43 -45 -146.5t-88 -240.5t-134 -296t-181 -310 q-158 -236 -305.5 -343.5t-307.5 -107.5q-37 0 -80 6t-90 31z" />
<glyph unicode="&#x444;" horiz-adv-x="1433" d="M201 422q0 141 46 259t136 204t222 136t304 56l119 490l137 22l-123 -516q225 -20 341 -134t116 -298q0 -143 -46 -261t-137 -203t-225.5 -134t-310.5 -55l-86 -367h-133l88 369q-231 16 -339.5 132t-108.5 300zM332 436q0 -166 87 -246.5t255 -95.5l209 871 q-113 -6 -213.5 -41t-175 -99.5t-118.5 -161t-44 -227.5zM807 94q143 8 248.5 51t175 114t103.5 165t34 203q0 152 -89 235.5t-263 100.5z" />
<glyph unicode="&#x445;" horiz-adv-x="925" d="M25 0l495 555l-262 504h156l207 -428q94 115 183 228.5t142 199.5h148q-90 -135 -200 -270.5t-212 -253.5q27 -51 59.5 -115t66.5 -134.5t63.5 -143t52.5 -142.5h-140q-14 47 -36.5 105.5t-50 120t-56.5 122t-53 109.5l-402 -457h-161z" />
<glyph unicode="&#x446;" horiz-adv-x="1130" d="M201 272q0 59 10 126t27 134l127 527h133l-113 -467q-16 -72 -35.5 -151t-19.5 -150q0 -41 9 -76t31.5 -61.5t59.5 -41t94 -14.5q90 0 170 32t142 93q-2 27 2 63t12 73.5t17.5 75.5t17.5 71l137 553h133l-162 -656q-16 -61 -24 -112t4 -89t53 -60.5t123 -26.5l-102 -408 h-129l79 311q-41 10 -70.5 36t-47.5 55q-12 -14 -42 -37t-76 -44.5t-109.5 -37t-143.5 -15.5q-88 0 -147.5 22.5t-94.5 62.5t-50 94.5t-15 117.5z" />
<glyph unicode="&#x447;" horiz-adv-x="1003" d="M242 639q0 53 14 109l76 311h133l-70 -281q-18 -68 -18 -116q0 -72 43 -110t147 -38q100 0 174 14.5t115 30.5l121 500h133l-254 -1059h-133l106 449q-12 -8 -38.5 -17.5t-63.5 -17.5t-79 -13.5t-83 -5.5q-324 0 -323 244z" />
<glyph unicode="&#x448;" horiz-adv-x="1644" d="M201 272q0 59 10 126t27 134l127 527h133l-113 -467q-16 -72 -35.5 -151t-19.5 -150q0 -59 16 -96t44 -58.5t63.5 -30t76.5 -8.5q78 0 157 26t136 66q-6 37 -6 82q0 59 10.5 126t26.5 134l127 527h133l-113 -467q-16 -72 -35.5 -151t-19.5 -150q0 -82 37 -137.5 t139 -55.5q92 0 161 39t130 113q0 55 16.5 127t30.5 129l137 553h134l-162 -656q-12 -51 -20.5 -96t-8.5 -86q0 -55 10.5 -104t36.5 -109l-137 -20q-12 25 -21.5 56.5t-13.5 64.5q-66 -70 -141.5 -102t-167.5 -32t-150.5 28t-91.5 75q-76 -53 -171 -79t-187 -26 q-61 0 -116.5 14.5t-97.5 48.5t-66.5 92t-24.5 144z" />
<glyph unicode="&#x449;" horiz-adv-x="1705" d="M201 272q0 59 10 126t27 134l127 527h133l-113 -467q-16 -72 -35.5 -151t-19.5 -150q0 -59 16 -96t44 -58.5t63.5 -30t76.5 -8.5q78 0 157 26t136 66q-6 37 -6 82q0 59 10.5 126t26.5 134l127 527h133l-113 -467q-16 -72 -35.5 -151t-19.5 -150q0 -82 38 -137.5 t126 -55.5q82 0 160 32t141 93q-2 25 4 65t14.5 82t16.5 79.5t14 56.5l137 553h134l-162 -656q-10 -45 -18.5 -82.5t-8.5 -70.5q0 -59 38 -94t144 -41l-102 -408h-129l80 311q-41 10 -70.5 36t-48.5 55q-12 -14 -41 -37t-75 -44.5t-105 -37t-133 -15.5q-86 0 -144.5 28 t-91.5 75q-76 -53 -171 -79t-187 -26q-61 0 -116.5 14.5t-97.5 48.5t-66.5 92t-24.5 144z" />
<glyph unicode="&#x44a;" horiz-adv-x="1118" d="M242 946l26 113h373l-102 -424q18 4 47.5 10t63.5 11.5t69 8.5t59 3q168 0 261.5 -62.5t93.5 -210.5q0 -127 -48.5 -209t-124 -128t-165.5 -63.5t-177 -17.5q-106 0 -199 12.5t-159 35.5l221 921h-239zM414 117q29 -4 80 -12.5t137 -8.5q76 0 142.5 15.5t115.5 49.5 t77.5 87t28.5 127q0 88 -52 131t-181 43q-74 0 -142.5 -10.5t-107.5 -20.5z" />
<glyph unicode="&#x44b;" horiz-adv-x="1456" d="M170 25l248 1034h133l-102 -424q18 4 47.5 10t63.5 11.5t69 8.5t59 3q168 0 261 -62.5t93 -210.5q0 -127 -48 -209t-123.5 -128t-166 -63.5t-176.5 -17.5q-106 0 -199 12.5t-159 35.5zM324 117q29 -4 80 -12.5t137 -8.5q76 0 142.5 15.5t115.5 49.5t77.5 87t28.5 127 q0 88 -52 131t-181 43q-74 0 -142.5 -10.5t-107.5 -20.5zM1174 0l256 1059h133l-256 -1059h-133z" />
<glyph unicode="&#x44c;" horiz-adv-x="1028" d="M170 25l248 1034h133l-102 -424q18 4 47.5 10t63.5 11.5t69 8.5t59 3q168 0 261 -62.5t93 -210.5q0 -127 -48 -209t-123.5 -128t-166 -63.5t-176.5 -17.5q-106 0 -199 12.5t-159 35.5zM324 117q29 -4 80 -12.5t137 -8.5q76 0 142.5 15.5t115.5 49.5t77.5 87t28.5 127 q0 88 -52 131t-181 43q-74 0 -142.5 -10.5t-107.5 -20.5z" />
<glyph unicode="&#x44d;" horiz-adv-x="851" d="M57 18l45 121q33 -14 85.5 -27.5t109.5 -13.5q100 0 180 31t139.5 85t99.5 126t60 152h-457l27 112h451q2 18 3 36.5t1 37.5q0 135 -66.5 210t-222.5 75q-78 0 -135.5 -17.5t-85.5 -32.5l-4 115q16 8 43.5 18.5t62.5 18.5t74 13t78 5q104 0 178 -29.5t122 -81.5 t70.5 -122t22.5 -152q0 -135 -40 -264t-121 -230.5t-203.5 -164t-288.5 -62.5q-86 0 -136.5 12.5t-91.5 28.5z" />
<glyph unicode="&#x44e;" horiz-adv-x="1501" d="M170 0l254 1059h133l-108 -453h270q33 121 91 210t131 148.5t153 88t157 28.5q68 0 128.5 -22.5t106.5 -67.5t73.5 -111.5t27.5 -152.5q0 -193 -52 -334t-134 -234t-182.5 -138.5t-196.5 -45.5q-68 0 -129.5 22.5t-107.5 68t-72.5 112t-26.5 154.5q0 43 3 83t7 79h-276 l-117 -494h-133zM821 340q0 -121 61.5 -182.5t147.5 -61.5q70 0 144.5 38t136 115t101.5 193.5t40 274.5q0 121 -61.5 182.5t-147.5 61.5q-70 0 -144.5 -38t-136 -115t-101.5 -193.5t-40 -274.5z" />
<glyph unicode="&#x44f;" horiz-adv-x="1017" d="M68 0q82 104 169 215t191 234q-68 23 -113 81t-45 160q0 92 38 165t107.5 123t166 76.5t211.5 26.5q35 0 80 -4t91 -10t88 -15.5t72 -17.5l-247 -1034h-134l101 426h-154h-67.5t-59.5 2q-82 -100 -167 -208.5t-163 -219.5h-165zM401 700q0 -100 64.5 -131.5t187.5 -31.5 h217l99 407q-29 6 -78 13.5t-117 7.5q-78 0 -145.5 -15.5t-118.5 -48.5t-80 -83t-29 -118z" />
<glyph unicode="&#x450;" horiz-adv-x="999" d="M201 365q0 131 40 260t117.5 231t191.5 164.5t259 62.5q143 0 220 -74.5t77 -197.5q0 -115 -56.5 -186.5t-157.5 -113.5t-243.5 -60.5t-316.5 -26.5v-43q0 -59 12 -110.5t45 -89.5t91.5 -60.5t150.5 -22.5q72 0 144.5 20.5t137.5 61.5l15 -123q-70 -39 -154 -60.5 t-170 -21.5q-113 0 -189.5 29t-124.5 80t-68.5 123t-20.5 158zM352 545q174 4 293 22.5t191.5 51t103.5 78.5t31 106q0 80 -48 120t-126 40q-82 0 -154 -34t-129 -91.5t-99 -133t-63 -159.5zM647 1464l109 119l299 -317l-72 -72z" />
<glyph unicode="&#x451;" horiz-adv-x="999" d="M201 365q0 131 40 260t117.5 231t191.5 164.5t259 62.5q143 0 220 -74.5t77 -197.5q0 -115 -56.5 -186.5t-157.5 -113.5t-243.5 -60.5t-316.5 -26.5v-43q0 -59 12 -110.5t45 -89.5t91.5 -60.5t150.5 -22.5q72 0 144.5 20.5t137.5 61.5l15 -123q-70 -39 -154 -60.5 t-170 -21.5q-113 0 -189.5 29t-124.5 80t-68.5 123t-20.5 158zM352 545q174 4 293 22.5t191.5 51t103.5 78.5t31 106q0 80 -48 120t-126 40q-82 0 -154 -34t-129 -91.5t-99 -133t-63 -159.5zM589 1366q0 41 27 76t76 35q47 0 68.5 -27t21.5 -59q0 -39 -27.5 -75t-76.5 -36 q-45 0 -67 25.5t-22 60.5zM942 1366q0 41 27.5 76t76.5 35q45 0 66.5 -27t21.5 -59q0 -39 -26.5 -75t-75.5 -36q-47 0 -68.5 25.5t-21.5 60.5z" />
<glyph unicode="&#x452;" horiz-adv-x="1116" d="M170 0l305 1286h-143l26 107h144l41 172l139 24l-49 -196h344l-27 -107h-342l-61 -256q129 53 244 53q70 0 129 -20.5t104 -61t70.5 -103t25.5 -148.5q0 -53 -8 -109.5t-22 -114.5l-140 -579q-16 -70 -38.5 -130.5t-59.5 -104.5t-93.5 -68.5t-142.5 -24.5q-35 0 -62.5 5 t-41.5 11l37 111q10 -4 31.5 -8t46.5 -4q78 0 121 49t65 147l129 541q16 68 30.5 137.5t14.5 132.5q0 61 -19.5 103.5t-51 68t-74.5 37t-90 11.5q-59 0 -120 -12.5t-114 -30.5l-215 -918h-133z" />
<glyph unicode="&#x453;" horiz-adv-x="798" d="M139 219q0 113 47 181.5t119 111.5t154 70.5t153.5 57.5t118.5 72t47 115q0 37 -14 62.5t-39 41t-57.5 23t-67.5 7.5q-37 0 -74 -5.5t-70.5 -14.5t-63.5 -19.5t-48 -18.5l-10 121q59 29 130 44t138 15q59 0 114.5 -13t97.5 -44t66.5 -79t24.5 -118q0 -100 -47 -160.5 t-118.5 -99.5t-153.5 -65.5t-154 -59t-119 -80t-47 -128.5q0 -39 17.5 -66t48 -42t69.5 -22.5t82 -7.5t86 5.5t82 14.5t71 20.5t50 23.5l8 -125q-63 -29 -145 -45.5t-156 -16.5q-70 0 -132 12.5t-108 42t-73 76t-27 113.5zM540 1284l340 299l78 -127l-358 -262z" />
<glyph unicode="&#x454;" horiz-adv-x="901" d="M201 352q0 152 44 285t127 232.5t203.5 156.5t274.5 57q63 0 114.5 -8t94.5 -24l-53 -117q-27 10 -68 19.5t-113 9.5q-166 0 -285.5 -95.5t-166.5 -263.5h448l-26 -112h-451q-4 -25 -5 -50.5t-1 -48.5q0 -137 62.5 -216t193.5 -79q111 0 181.5 16.5t98.5 30.5l15 -116 q-25 -10 -98.5 -32t-192.5 -22q-121 0 -197.5 36t-120.5 91.5t-61.5 122t-17.5 127.5z" />
<glyph unicode="&#x455;" horiz-adv-x="819" d="M98 47l58 121q76 -41 133 -55.5t129 -14.5q51 0 98 11.5t82 34t55.5 59.5t20.5 86q0 53 -30 88t-74 60.5t-95 50t-95 57.5t-74 82t-30 127q0 88 33 150.5t88.5 102.5t127 58t147.5 18q66 0 130 -11t124 -34l-54 -118q-43 18 -98 29.5t-115 11.5q-49 0 -95 -10.5 t-80.5 -34t-56 -59.5t-21.5 -87q0 -53 29.5 -88t72.5 -61.5t95 -50t95 -56.5t73 -79t30 -118q0 -90 -34 -155.5t-89 -106.5t-127 -60.5t-148 -19.5q-80 0 -159.5 17.5t-145.5 54.5z" />
<glyph unicode="&#x456;" horiz-adv-x="481" d="M170 0l256 1059h133l-256 -1059h-133zM479 1368q0 53 30 81t64 28q41 0 63.5 -26t22.5 -67q0 -49 -32.5 -75.5t-65.5 -26.5q-41 0 -61.5 23.5t-20.5 62.5z" />
<glyph unicode="&#x457;" horiz-adv-x="481" d="M170 0l256 1059h133l-256 -1059h-133zM299 1366q0 41 27 76t76 35q47 0 68.5 -27t21.5 -59q0 -39 -27.5 -75t-76.5 -36q-45 0 -67 25.5t-22 60.5zM652 1366q0 41 27.5 76t76.5 35q45 0 66.5 -27t21.5 -59q0 -39 -26.5 -75t-75.5 -36q-47 0 -68.5 25.5t-21.5 60.5z" />
<glyph unicode="&#x458;" horiz-adv-x="481" d="M-207 -348l31 112q33 -16 62.5 -24t68.5 -8q55 0 94 22.5t68.5 62.5t49 95t36.5 121l243 1026h134l-240 -1002q-27 -111 -58.5 -193.5t-77.5 -138t-110.5 -83t-154.5 -27.5q-51 0 -87 11.5t-59 25.5zM504 1368q0 53 29.5 81t64.5 28q41 0 63.5 -26t22.5 -67 q0 -49 -33 -75.5t-65 -26.5q-41 0 -61.5 23.5t-20.5 62.5z" />
<glyph unicode="&#x459;" horiz-adv-x="1617" d="M57 92q106 6 176 72.5t119 175.5t84 252t72 305l37 162h616l-102 -424q16 4 46 10t62.5 11.5t65.5 8.5t57 3q162 0 252 -62.5t90 -210.5q0 -127 -47 -209t-120.5 -128t-163 -63.5t-171.5 -17.5q-104 0 -194 12.5t-156 35.5l221 921h-346l-10 -41q-27 -106 -51.5 -214.5 t-55 -209t-69.5 -188.5t-95.5 -154.5t-133 -108.5t-181.5 -48zM934 117q29 -4 78 -12.5t131 -8.5q74 0 136 15.5t109.5 49.5t74 87t26.5 127q0 88 -46 131t-169 43q-72 0 -138.5 -10.5t-103.5 -20.5z" />
<glyph unicode="&#x45a;" horiz-adv-x="1667" d="M170 0l254 1059h133l-108 -453h520l108 453h133l-102 -424q16 4 46 10t62.5 11.5t65.5 8.5t57 3q162 0 252 -62.5t90 -210.5q0 -127 -47 -209t-120.5 -128t-162.5 -63.5t-171 -17.5q-104 0 -194.5 12.5t-156.5 35.5l113 469h-522l-117 -494h-133zM983 117q29 -4 78 -12.5 t131 -8.5q74 0 136.5 15.5t109.5 49.5t73.5 87t26.5 127q0 88 -46 131t-169 43q-72 0 -138.5 -10.5t-103.5 -20.5z" />
<glyph unicode="&#x45b;" horiz-adv-x="1116" d="M170 0l303 1276h-133l25 106h135l43 183l139 24l-51 -207h346l-25 -106h-346l-59 -246q129 53 244 53q70 0 129 -20.5t104 -61t70.5 -103t25.5 -148.5q0 -53 -8 -109.5t-22 -114.5l-127 -526h-134l113 471q16 68 30.5 137.5t14.5 132.5q0 61 -19.5 103.5t-51 68t-74.5 37 t-90 11.5q-59 0 -120 -12.5t-114 -30.5l-215 -918h-133z" />
<glyph unicode="&#x45c;" horiz-adv-x="1032" d="M170 0l256 1059h133l-108 -449q74 49 153.5 111.5t153 125t133 119t92.5 93.5h162q-37 -47 -108.5 -116t-154.5 -139.5t-161 -131t-127 -88.5q70 -53 140.5 -125t131 -151t107.5 -158.5t71 -149.5h-143q-90 193 -213 331t-250 224l-135 -555h-133zM712 1284l340 299 l78 -127l-358 -262z" />
<glyph unicode="&#x45d;" horiz-adv-x="1069" d="M201 272q0 59 10 126t27 134l127 527h133l-113 -467q-16 -72 -35.5 -151t-19.5 -150q0 -41 9 -76t31.5 -61.5t59.5 -41t94 -14.5q98 0 173 39t141 113q0 55 16 127t31 129l137 553h133l-162 -656q-12 -51 -20 -96t-8 -86q0 -55 10 -104t37 -109l-138 -20q-12 25 -21 56.5 t-13 64.5q-72 -70 -153 -102t-179 -32q-88 0 -147.5 22.5t-94.5 62.5t-50 94.5t-15 117.5zM569 1464l109 119l299 -317l-72 -72z" />
<glyph unicode="&#x45e;" horiz-adv-x="925" d="M-121 -348l47 110q55 -31 125 -30q104 0 204.5 57t186.5 174q-86 272 -135 553t-57 543h139q4 -98 13.5 -215t28 -244t45 -259t65.5 -257q92 145 165.5 293.5t129 279.5t91.5 236.5t52 165.5h131q-12 -43 -45 -146.5t-88 -240.5t-134 -296t-181 -310 q-158 -236 -305.5 -343.5t-307.5 -107.5q-37 0 -80 6t-90 31zM442 1483l115 28q-4 -70 29.5 -113.5t119.5 -43.5q70 0 120 44t79 113l102 -28q-47 -117 -124.5 -180.5t-204.5 -63.5q-115 0 -179.5 63.5t-56.5 180.5z" />
<glyph unicode="&#x45f;" horiz-adv-x="1069" d="M201 272q0 59 10 126t27 134l127 527h133l-113 -467q-16 -72 -35.5 -151t-19.5 -150q0 -41 9 -76t31.5 -61.5t59.5 -41t94 -14.5q98 0 173 39t141 113q0 55 16 127t31 129l137 553h133l-162 -656q-12 -51 -20 -96t-8 -86q0 -55 10 -104t37 -109l-138 -20q-12 25 -21 56.5 t-13 64.5q-72 -70 -153 -102t-179 -32q-88 0 -147.5 22.5t-94.5 62.5t-50 94.5t-15 117.5zM346 -379l70 293h129l-70 -293h-129z" />
<glyph unicode="&#x462;" horiz-adv-x="1386" d="M295 1212l27 113h352l45 186h139l-45 -186h395l-28 -113h-396l-82 -344h195q111 0 202 -18.5t155.5 -59t100.5 -105t36 -159.5q0 -256 -172 -397t-494 -141q-90 0 -190.5 10t-172.5 29l285 1185h-352zM524 123q6 -2 24.5 -4t45.5 -4t56.5 -4t60.5 -2q100 0 196.5 16 t172 61t121.5 125t46 207q0 76 -29.5 121t-80 69.5t-116 33t-136.5 8.5h-209z" />
<glyph unicode="&#x463;" horiz-adv-x="1648" d="M170 0l244 1022q80 23 170 40t178 17q74 0 139.5 -15t114.5 -54t77.5 -102.5t28.5 -157.5q0 -29 -3 -57.5t-7 -57.5q18 4 47 10t61.5 11.5t64.5 8.5t54 3q160 0 242 -62.5t82 -210.5q0 -127 -45 -209t-115.5 -128t-155.5 -63.5t-167 -17.5q-102 0 -190.5 12.5 t-151.5 35.5l4 18l102 428q16 68 29.5 137.5t15.5 132.5q0 63 -19.5 104.5t-53 66t-78.5 34.5t-95 10q-53 0 -108 -8t-109 -20l-223 -928h-133zM993 117q29 -4 75 -12.5t124 -8.5q70 0 132 15.5t108.5 49.5t73 87t26.5 127q0 88 -47 131t-162 43q-70 0 -134.5 -10.5 t-98.5 -20.5z" />
<glyph unicode="&#x472;" horiz-adv-x="1531" d="M283 528q0 211 69.5 382t184 291t259 184.5t296.5 64.5q100 0 192 -34t162 -102.5t110.5 -174t40.5 -246.5q0 -213 -69.5 -384t-184 -291t-260 -184.5t-295.5 -64.5q-102 0 -193 34t-160.5 102.5t-110.5 174t-41 248.5zM430 506q0 -104 28.5 -182t80 -128.5t118 -76 t144.5 -25.5q98 0 193.5 35t177 102.5t144 167t97.5 228.5q-47 -29 -106.5 -45.5t-132.5 -16.5q-78 0 -133.5 22.5t-105.5 50.5t-104.5 50.5t-132.5 22.5q-80 0 -150.5 -34t-113.5 -73q-4 -25 -4 -49v-49zM453 735q53 41 125.5 71t171.5 30q78 0 133 -22.5t105 -50.5 t104.5 -50.5t132.5 -22.5q59 0 115.5 20.5t99.5 49.5q4 37 7 74.5t3 78.5q0 104 -28.5 182.5t-80 128.5t-119 75.5t-143.5 25.5q-104 0 -204.5 -39t-184.5 -113.5t-146.5 -184t-90.5 -253.5z" />
<glyph unicode="&#x473;" horiz-adv-x="1077" d="M201 332q0 193 54 334t139 233t188.5 137t203.5 45q72 0 136.5 -22.5t113.5 -67.5t78 -111.5t29 -152.5q0 -193 -54.5 -334t-139.5 -234t-188.5 -138.5t-203.5 -45.5q-72 0 -136.5 22.5t-113.5 68t-77.5 112t-28.5 154.5zM336 340q0 -121 67.5 -182.5t161.5 -61.5 q57 0 117.5 23.5t116 70t101.5 117t75 164.5q-27 -16 -61.5 -27.5t-71.5 -11.5q-53 0 -91 16.5t-72 36t-70 36t-87 16.5q-49 0 -96 -21.5t-82 -52.5q-4 -29 -6 -59.5t-2 -63.5zM369 588q35 23 77.5 41t96.5 18q53 0 91 -16.5t71.5 -36t69.5 -35.5t87 -16q37 0 72 11t63 30 q4 31 7.5 64.5t3.5 68.5q0 121 -68 182.5t-162 61.5q-57 0 -117.5 -24t-116 -70t-101.5 -115.5t-74 -163.5z" />
<glyph unicode="&#x474;" horiz-adv-x="1304" d="M344 1419h135q18 -217 38 -399t40.5 -337t39.5 -286t42 -243l545 974q33 57 66.5 113.5t74.5 100.5t92 71t117 27q47 0 102.5 -15.5t102.5 -66.5l-84 -96q-35 31 -56.5 44t-58.5 13t-66.5 -16.5t-55 -47t-51.5 -73.5t-56 -95l-639 -1087h-129q-29 143 -54.5 285.5 t-50 307.5t-47 364.5t-47.5 461.5z" />
<glyph unicode="&#x475;" horiz-adv-x="1021" d="M262 1059h131q2 -111 10.5 -234t22.5 -244.5t33.5 -235.5t42.5 -202l395 705q29 51 57.5 93t62.5 72.5t77 48t98 17.5q29 0 60.5 -5t70.5 -21l-47 -107q-25 10 -44.5 14.5t-37.5 4.5q-59 0 -97 -37t-85 -115l-477 -813h-136q-25 109 -47 234.5t-41.5 261t-33 279 t-15.5 284.5z" />
<glyph unicode="&#x48a;" horiz-adv-x="1382" d="M170 0h137q57 74 139 174t176.5 213t196 229.5t198.5 224t183 198.5t152 151l-285 -1190h127q-29 -102 -103.5 -181t-150.5 -132l84 -72q68 39 127 94t105.5 121t75 140.5t34.5 150.5h-137l313 1298h-125q-82 -74 -177 -170t-195.5 -202.5t-200 -219t-189.5 -219 t-165.5 -200t-127.5 -162.5l283 1173h-133zM827 1802l115 29q-4 -70 30 -114t120 -44q70 0 120 44t78 114l103 -29q-47 -117 -125 -180t-205 -63q-115 0 -179.5 63.5t-56.5 179.5z" />
<glyph unicode="&#x48b;" horiz-adv-x="1130" d="M201 272q0 -63 15 -117.5t50 -94.5t94.5 -62.5t147.5 -22.5q80 0 143.5 15.5t109.5 37t75.5 44t42.5 37.5q18 -29 47.5 -54.5t70.5 -36.5q-16 -51 -47.5 -99t-66.5 -87t-65 -66.5t-44 -37.5l78 -68q25 16 68 55t88 97.5t85 135.5t56 167q-82 4 -123 26.5t-53 60.5t-4 89 t24 112l162 656h-133l-137 -553q-8 -33 -17.5 -71t-17.5 -75.5t-12 -73.5t-2 -63q-61 -61 -141.5 -93t-170.5 -32q-57 0 -94 14.5t-59.5 41t-31.5 61.5t-9 76q0 72 19.5 150.5t35.5 150.5l113 467h-133l-127 -527q-16 -68 -26.5 -134t-10.5 -126zM571 1483l115 28 q-4 -70 30 -113.5t120 -43.5q70 0 120 44t78 113l103 -28q-47 -117 -125 -180.5t-205 -63.5q-115 0 -179.5 63.5t-56.5 180.5z" />
<glyph unicode="&#x48c;" horiz-adv-x="1216" d="M180 27l266 1110h-159l26 110h160l41 172h139l-41 -172h285l-27 -110h-284l-62 -260q66 4 109 8t84 4q113 0 206 -17.5t158.5 -57.5t102.5 -104.5t37 -158.5q0 -164 -60.5 -272.5t-157 -173t-218 -91t-246.5 -26.5q-43 0 -92.5 3t-97.5 7t-92 11t-77 18zM342 123 q16 -2 68.5 -8t130.5 -6q94 0 190 16t174 63.5t127 130t49 218.5q0 74 -28.5 118.5t-79.5 70.5t-119 34t-143 8q-106 0 -150.5 -5t-64.5 -7z" />
<glyph unicode="&#x48d;" horiz-adv-x="1021" d="M170 25l199 833h-150l27 109h149l37 151h133l-37 -151h324l-27 -109h-323l-53 -223q18 4 47.5 10t63.5 11.5t69 8.5t59 3q172 0 260 -62.5t88 -210.5q0 -127 -47 -209t-120.5 -128t-164 -63.5t-176.5 -17.5q-106 0 -199 12.5t-159 35.5zM324 117q29 -4 80 -12.5t137 -8.5 q76 0 142.5 15.5t115.5 49.5t77.5 87t28.5 127q0 88 -52 131t-181 43q-74 0 -142.5 -10.5t-107.5 -20.5z" />
<glyph unicode="&#x48e;" horiz-adv-x="1157" d="M170 0l334 1393q78 16 167 27.5t181 11.5q244 0 358.5 -92.5t114.5 -266.5q0 -162 -89 -283.5t-257 -185.5l76 -231l-121 -64l-86 258q-98 -18 -213 -18h-193l-133 -549h-139zM469 670h184q84 0 158 12l-57 180l118 64l68 -209q117 47 177.5 132t60.5 206 q0 133 -86 194.5t-271 61.5q-53 0 -105 -5.5t-95 -9.5z" />
<glyph unicode="&#x48f;" horiz-adv-x="1062" d="M78 -379l336 1395q86 31 172 49t170 18q373 0 372 -389q0 -92 -20.5 -180t-59 -167t-96 -146.5t-133.5 -116.5l66 -197l-113 -55l-65 195q-119 -45 -256 -45q-80 0 -148 18l-90 -379h-135zM336 123q63 -18 129 -19q55 0 105.5 10.5t97.5 28.5l-72 215l113 60l69 -209 q104 82 159.5 208t55.5 257q0 154 -67.5 224.5t-202.5 70.5q-47 0 -95 -8.5t-100 -22.5z" />
<glyph unicode="&#x490;" horiz-adv-x="933" d="M170 0l340 1419h610l66 271h131l-94 -392h-602l-312 -1298h-139z" />
<glyph unicode="&#x491;" horiz-adv-x="790" d="M170 0l254 1059h463l69 272h125l-92 -385h-459l-227 -946h-133z" />
<glyph unicode="&#x492;" horiz-adv-x="980" d="M190 670l29 112h166l154 637h753l-26 -114h-615l-125 -523h328l-27 -112h-327l-162 -670h-139l159 670h-168z" />
<glyph unicode="&#x493;" horiz-adv-x="798" d="M139 219q0 70 20.5 122t55.5 92t80 69.5t96 52.5l-149 70l55 90l227 -107q51 18 97.5 39t81 45.5t55 57t20.5 77.5q0 37 -14 62.5t-39 41t-57.5 23t-67.5 7.5q-37 0 -74 -5.5t-70.5 -14.5t-63.5 -19.5t-48 -18.5l-10 121q59 29 130 44t138 15q59 0 114.5 -13t97.5 -44 t66.5 -79t24.5 -118q0 -63 -20.5 -110t-54 -81t-78.5 -58.5t-95 -44.5l172 -80l-55 -90l-256 118q-51 -18 -96 -39.5t-80 -50t-55.5 -66.5t-20.5 -91q0 -39 17.5 -66t48 -42t69.5 -22.5t82 -7.5t86 5.5t82 14.5t71 20.5t50 23.5l8 -125q-63 -29 -145 -45.5t-156 -16.5 q-70 0 -132 12.5t-108 42t-73 76t-27 113.5z" />
<glyph unicode="&#x494;" horiz-adv-x="1191" d="M170 0l340 1419h754l-27 -114h-614l-111 -457q78 20 147.5 31.5t131.5 11.5q115 0 195.5 -39t131.5 -105.5t75 -157.5t24 -196q0 -133 -45.5 -270t-131.5 -249t-212 -182.5t-289 -70.5q-29 0 -57.5 2t-59.5 6l33 119q43 -6 84 -6q125 0 224 59.5t167.5 151.5t104.5 205.5 t36 222.5q0 86 -19.5 156.5t-59.5 121t-101.5 79t-145.5 28.5q-59 0 -125.5 -11.5t-138.5 -33.5l-172 -721h-139z" />
<glyph unicode="&#x495;" horiz-adv-x="1009" d="M170 0l254 1059h590l-25 -113h-459l-79 -334q51 16 103 27.5t110 11.5q174 0 262 -96t88 -258q0 -150 -38 -273.5t-108.5 -213t-170 -139.5t-222.5 -50q-43 0 -86 6l33 115q31 -6 61 -6q84 0 158 37t128 106.5t86 168.5t32 222q0 125 -66.5 193.5t-197.5 68.5 q-57 0 -110.5 -12t-90.5 -22l-119 -498h-133z" />
<glyph unicode="&#x496;" horiz-adv-x="1630" d="M20 0q57 90 136.5 188.5t173.5 196.5t198.5 191.5t214.5 175.5q-98 168 -191 333.5t-187 333.5h155q88 -166 183.5 -341t185.5 -324l160 665h131l-160 -665q100 86 204.5 181t198 185t171 169t124.5 130h158q-29 -33 -77 -83t-109.5 -111.5t-132 -129t-141 -132 t-136.5 -124t-119 -104.5q129 -152 215 -306.5t152 -307.5h155l-120 -500h-133l92 379h-99q-25 84 -74 186.5t-108 200.5t-120.5 183t-110.5 135l-172 -705h-131l170 705q-72 -47 -164 -127t-187.5 -176.5t-187.5 -201t-166 -200.5h-152z" />
<glyph unicode="&#x497;" horiz-adv-x="1710" d="M47 4l37 117q29 -16 52.5 -19.5t49.5 -3.5q98 0 169 50.5t115 135.5t65.5 194.5t21.5 230.5q0 47 -7 92t-25.5 79.5t-51.5 56t-82 21.5q-35 0 -80 -12l-10 113q68 18 121 18q135 0 198.5 -97t63.5 -253q0 -66 -6 -121h246l108 453h133l-108 -453h231q27 123 75 212 t111.5 146.5t138.5 85t152 27.5q45 0 65.5 -5t47.5 -15l-39 -115q-23 8 -39 11t-43 3q-104 0 -175 -56t-114 -144t-61 -194.5t-18 -207.5q0 -49 6 -93t25.5 -77.5t57.5 -53t101 -19.5q43 0 81 4t54 12l-102 -420h-129l69 287h-4q-72 0 -126 25.5t-90 71.5t-53 108.5 t-17 134.5q0 41 2 81t6 79h-240l-119 -494h-133l119 494h-231q-23 -135 -71 -232.5t-111.5 -161t-139.5 -93.5t-156 -30q-76 0 -141 27z" />
<glyph unicode="&#x498;" horiz-adv-x="1064" d="M78 61l67 121q12 -10 40 -25.5t68 -29.5t93 -25.5t117 -11.5q94 0 179 18.5t148.5 61.5t100.5 111.5t37 169.5q0 76 -32 124t-85 74.5t-123 35.5t-145 9h-86l28 119h111q80 0 157.5 21.5t138 61.5t98.5 99.5t38 134.5q0 43 -11 79t-40 62.5t-78 42t-125 15.5 q-72 0 -126 -8t-94 -19.5t-66.5 -23.5t-45.5 -21l-20 109q16 12 56 26.5t90 28t105.5 21.5t100.5 8q86 0 160 -17.5t126 -55.5t81.5 -98t29.5 -144q0 -82 -32.5 -144.5t-81.5 -108.5t-109.5 -76t-116.5 -44q45 -14 88.5 -37t77 -58.5t54 -87t20.5 -118.5q0 -127 -42 -216 t-112.5 -146.5t-164 -87t-195.5 -38.5l-33 -51q47 -27 68.5 -54.5t21.5 -76.5q0 -84 -64.5 -129t-162.5 -45q-35 0 -68.5 4t-74.5 21l37 88q45 -18 100 -19q47 0 75.5 14.5t28.5 49.5q0 31 -19.5 49t-76.5 41q10 23 28.5 50.5t39.5 53.5h-2q-80 0 -144.5 11.5t-112.5 25.5 t-78 29.5t-42 25.5z" />
<glyph unicode="&#x499;" horiz-adv-x="849" d="M78 23l41 118q12 -6 31.5 -13t49 -15.5t71.5 -13.5t100 -5q55 0 115.5 11.5t109.5 40t81 76.5t32 124q0 51 -27 81t-64.5 46t-83 21.5t-81.5 5.5h-93l27 112h94q45 0 98.5 8.5t98.5 32t74.5 66.5t29.5 112q0 37 -16 63t-44 41t-64.5 21.5t-75.5 6.5q-72 0 -142.5 -11.5 t-117.5 -33.5l-11 118q57 18 129 31.5t144 13.5q63 0 123.5 -12t106.5 -42t73.5 -79t27.5 -121q0 -92 -56 -161.5t-169 -108.5q74 -27 113 -81t39 -122q0 -86 -28 -150.5t-78 -109.5t-119.5 -72.5t-151.5 -37.5l-39 -62q47 -27 68.5 -54.5t21.5 -76.5q0 -84 -64.5 -129 t-162.5 -45q-35 0 -69 4t-75 21l37 88q45 -18 101 -19q47 0 75.5 14.5t28.5 49.5q0 31 -19.5 49t-76.5 41q12 23 31.5 52.5t39.5 57.5h-18q-92 0 -165 16.5t-101 31.5z" />
<glyph unicode="&#x49a;" horiz-adv-x="1255" d="M170 0l340 1419h137l-155 -653q100 72 217.5 164t231.5 184t209 173t150 132h185q-68 -61 -172.5 -149t-221 -182.5t-234.5 -187.5t-212 -167q61 -47 127 -116.5t130.5 -152.5t123.5 -172t104 -171h158l-121 -500h-133l92 379h-92q-119 229 -253 407.5t-304 301.5 l-168 -709h-139z" />
<glyph unicode="&#x49b;" horiz-adv-x="1042" d="M170 0l256 1059h133l-108 -449q74 49 150.5 111.5t147 125t128 119t90.5 93.5h161q-37 -47 -106.5 -116t-148 -139.5t-154.5 -131t-125 -88.5q55 -41 109.5 -95.5t103.5 -116t91 -126t75 -125.5h151l-120 -500h-134l93 379h-78q-90 193 -205 331t-242 224l-135 -555h-133 z" />
<glyph unicode="&#x49c;" horiz-adv-x="1310" d="M172 0l340 1419h137l-149 -628h147l74 309h115l-74 -307q82 68 170 152.5t171 169.5t155.5 165t121.5 139h181q-49 -57 -122 -136t-163 -170t-193.5 -189.5t-214.5 -190.5q68 -53 130.5 -142t117.5 -193.5t100.5 -210t75.5 -187.5h-153q-33 86 -73 181t-90 187.5 t-109.5 174.5t-131.5 141l-78 -328h-114l78 322h-150l-160 -678h-139z" />
<glyph unicode="&#x49d;" horiz-adv-x="1243" d="M170 0l256 1059h133l-108 -453h155l60 244h110l-59 -244q63 49 133 112.5t134.5 126t117.5 120t86 94.5h158q-37 -47 -99.5 -114.5t-137.5 -141.5t-152.5 -143.5t-143.5 -116.5q66 -49 122 -113.5t102 -136.5t84 -146.5t67 -146.5h-139q-47 104 -93.5 183t-90.5 137.5 t-88 100.5t-87 75l-55 -232h-111l56 234h-156l-121 -498h-133z" />
<glyph unicode="&#x49e;" horiz-adv-x="1234" d="M170 0l272 1137h-141l27 110h141l41 172h137l-41 -172h189l-27 -110h-188l-88 -371q100 72 217.5 164t231.5 184t209 173t150 132h185q-68 -61 -172.5 -149t-221 -182.5t-234.5 -187.5t-212 -167q74 -55 154 -144t154.5 -191.5t138 -207t100.5 -190.5h-158 q-119 229 -253 407.5t-304 301.5l-168 -709h-139z" />
<glyph unicode="&#x49f;" horiz-adv-x="1021" d="M170 0l209 864h-135l26 109h136l34 145h133l-34 -145h141l-27 -109h-141l-61 -254q74 49 150.5 111.5t147 125t128 119t90.5 93.5h161q-37 -47 -106.5 -116t-148 -139.5t-154.5 -131t-125 -88.5q70 -53 137.5 -125t124.5 -151t102.5 -158.5t69.5 -149.5h-143 q-90 193 -205 331t-242 224l-135 -555h-133z" />
<glyph unicode="&#x4a0;" horiz-adv-x="1433" d="M324 1298l28 121h494l-156 -653q100 72 218 164t231.5 184t209 173t150.5 132h184q-68 -61 -172 -149t-220.5 -182.5t-234.5 -187.5t-212 -167q74 -55 153.5 -144t154.5 -191.5t138.5 -207t100.5 -190.5h-158q-119 229 -253 407.5t-304 301.5l-168 -709h-139l309 1298 h-354z" />
<glyph unicode="&#x4a1;" horiz-adv-x="1126" d="M242 946l28 113h394l-109 -449q74 49 150.5 111.5t147.5 125t128 119t90 93.5h162q-37 -47 -106.5 -116t-148.5 -139.5t-154.5 -131t-125.5 -88.5q70 -53 137.5 -125t125 -151t102.5 -158.5t70 -149.5h-144q-90 193 -204.5 331t-241.5 224l-135 -555h-134l228 946h-260z " />
<glyph unicode="&#x4a2;" horiz-adv-x="1359" d="M170 0l340 1419h139l-151 -616h735l147 616h140l-310 -1298h144l-121 -500h-133l92 379h-150l164 682h-733l-164 -682h-139z" />
<glyph unicode="&#x4a3;" horiz-adv-x="1081" d="M170 0l254 1059h133l-108 -453h512l108 453h133l-227 -946h121l-99 -406h-129l72 293h-125l117 494h-512l-117 -494h-133z" />
<glyph unicode="&#x4a4;" horiz-adv-x="1542" d="M170 0l340 1419h139l-151 -616h735l147 616h473l-30 -121h-334l-307 -1298h-140l164 682h-733l-164 -682h-139z" />
<glyph unicode="&#x4a5;" horiz-adv-x="1253" d="M170 0l254 1059h133l-108 -453h512l108 453h393l-28 -113h-260l-226 -946h-133l117 494h-512l-117 -494h-133z" />
<glyph unicode="&#x4a6;" horiz-adv-x="1998" d="M170 0l340 1419h938l-139 -573q80 23 151.5 34t136.5 11q115 0 196 -39t132 -105.5t74.5 -157.5t23.5 -196q0 -133 -45 -270t-131 -249t-212 -182.5t-289 -70.5q-29 0 -57.5 2t-59.5 6l33 119q43 -6 84 -6q125 0 224 59.5t167.5 151.5t104.5 205.5t36 222.5 q0 86 -19.5 156.5t-59.5 121t-101.5 79t-145.5 28.5q-125 0 -274 -49l-172 -717h-139l313 1298h-659l-312 -1298h-139z" />
<glyph unicode="&#x4a7;" horiz-adv-x="1658" d="M170 0l244 1022q80 23 170 40t178 17q74 0 139.5 -15t114.5 -54t77.5 -102.5t28.5 -157.5q0 -33 -4 -66t-8 -68q49 16 99.5 25.5t103.5 9.5q174 0 262 -96t88 -258q0 -150 -38 -273.5t-108.5 -213t-170 -139.5t-222.5 -50q-43 0 -86 6l33 115q31 -6 62 -6q84 0 157.5 37 t128 106.5t86 168.5t31.5 222q0 125 -66.5 193.5t-197.5 68.5q-53 0 -102.5 -10t-84.5 -20l-120 -502h-134l113 471q14 68 29.5 137.5t15.5 132.5t-19.5 104.5t-53 66t-78.5 34.5t-95 10q-53 0 -108 -8t-109 -20l-223 -928h-133z" />
<glyph unicode="&#x4a8;" horiz-adv-x="1511" d="M283 479q0 197 58 373t167.5 309t266.5 211t351 78q123 0 186.5 -12.5t106.5 -28.5l-59 -119q-39 14 -92.5 25.5t-145.5 11.5q-156 0 -282.5 -68.5t-218 -182t-140.5 -260t-49 -302.5q0 -115 22.5 -190.5t64.5 -122.5t101.5 -69.5t131.5 -31.5q-4 27 -5.5 48.5t-1.5 50.5 q0 92 12.5 192.5t39 197.5t70.5 186t105.5 155.5t144.5 106.5t188 40q74 0 128 -26.5t91 -72.5t55 -105.5t18 -124.5q0 -154 -52 -286t-143 -232.5t-217 -165t-274 -82.5q20 -76 72.5 -124t112 -76t114 -38t76.5 -10l-43 -111q-57 0 -128 15.5t-138.5 54.5t-123.5 106.5 t-83 173.5q-100 8 -189 41t-155 94.5t-104.5 152.5t-38.5 218zM881 197q0 -31 3 -56.5t7 -50.5q135 18 241.5 77.5t178 147.5t109.5 195.5t38 224.5q0 43 -10 82t-32.5 70t-57.5 49t-82 18q-98 0 -172 -72.5t-124 -183t-74.5 -245t-24.5 -256.5z" />
<glyph unicode="&#x4a9;" horiz-adv-x="1163" d="M201 406q0 147 49 270t134 212t196.5 138t238.5 49q35 0 67 -4t64 -12l-47 -107q-23 6 -41 9.5t-51 3.5q-117 0 -207 -46.5t-151.5 -126t-93 -184t-31.5 -221.5q0 -139 61.5 -215t175.5 -76q-2 12 -2 27.5v32.5q0 92 19.5 204.5t68.5 212t131 167t207 67.5 q59 0 101.5 -19.5t68 -52.5t37.5 -78t12 -96q0 -92 -33.5 -186t-97 -174t-152.5 -137.5t-202 -75.5q23 -70 87 -118t191 -58l-40 -107q-168 16 -257.5 90t-117.5 185q-98 2 -171 36.5t-120 93t-70.5 134t-23.5 162.5zM690 124q0 -18 4 -34q84 14 155 52t123 96.5t80.5 136.5 t28.5 176q0 68 -26.5 106.5t-89.5 38.5q-61 0 -105.5 -29.5t-75 -76.5t-49 -106.5t-29 -119t-13.5 -112.5t-3 -90v-38z" />
<glyph unicode="&#x4aa;" horiz-adv-x="1249" d="M283 518q0 219 67.5 392t182 293t264 183.5t313.5 63.5q96 0 179 -20.5t169 -67.5l-63 -127q-147 90 -314 90q-129 0 -246.5 -56.5t-207.5 -160.5t-143.5 -252.5t-53.5 -333.5q0 -209 90 -318.5t277 -109.5q82 0 145.5 10.5t109.5 24.5t77.5 29.5t54.5 27.5l18 -123 q-80 -43 -183.5 -67.5t-203.5 -26.5q-16 -20 -31 -47q47 -27 68.5 -54.5t21.5 -76.5q0 -84 -64.5 -129t-162.5 -45q-35 0 -68.5 4t-74.5 21l37 88q45 -18 100 -19q47 0 75.5 14.5t28.5 49.5q0 31 -19 49t-77 41q10 23 29.5 52.5t40.5 55.5q-98 10 -178 47t-137.5 103.5 t-89 164t-31.5 230.5z" />
<glyph unicode="&#x4ab;" horiz-adv-x="931" d="M201 375q0 139 43 267t126 226.5t203.5 156.5t274.5 58q106 0 211 -34l-55 -121q-47 18 -93.5 25.5t-89.5 7.5q-109 0 -197.5 -46.5t-152 -125t-98.5 -182t-35 -218.5q0 -135 62.5 -213t199.5 -78q43 0 87 8.5t81 19.5t65.5 23.5t43.5 22.5l14 -121q-39 -25 -119 -48 t-178 -28q-10 -14 -19.5 -28.5t-15.5 -24.5q47 -27 68.5 -54.5t21.5 -76.5q0 -84 -64.5 -129t-162.5 -45q-35 0 -69 4t-74 21l36 88q45 -18 101 -19q47 0 75.5 14.5t28.5 49.5q0 31 -19.5 49t-76.5 41q12 25 32.5 56.5t43.5 60.5q-150 20 -224.5 123.5t-74.5 269.5z" />
<glyph unicode="&#x4ac;" horiz-adv-x="1075" d="M348 1298l27 121h1007l-28 -121h-432l-283 -1177h133l-121 -500h-133l92 379h-139l311 1298h-434z" />
<glyph unicode="&#x4ad;" horiz-adv-x="1660" d="M170 0l244 1022q31 10 69.5 20.5t81.5 18.5t88 13t86 5q86 0 157 -23.5t118 -84.5q104 61 183 84.5t155 23.5q70 0 130 -15t105 -52t72 -100.5t27 -161.5q0 -53 -8.5 -109.5t-22.5 -114.5l-101 -413h121l-98 -406h-129l72 293h-125l112 471q16 68 30.5 137.5t14.5 132.5 t-16 105.5t-46 67t-69 33.5t-84 9q-43 0 -111.5 -15t-164.5 -77q12 -53 12 -114q0 -53 -8 -109.5t-23 -114.5l-127 -526h-133l113 471q16 68 30.5 137.5t14.5 132.5t-16.5 105.5t-46 67t-68.5 33.5t-84 9q-47 0 -100.5 -8t-98.5 -20l-223 -928h-133z" />
<glyph unicode="&#x4ae;" horiz-adv-x="1136" d="M369 1419h151q41 -176 94.5 -363.5t118.5 -348.5q70 78 147.5 168t153.5 184t143.5 186t120.5 174h166q-141 -188 -319 -407t-371 -439l-135 -573h-139l135 573q-39 104 -75 215t-69.5 219.5t-64.5 214t-57 197.5z" />
<glyph unicode="&#x4af;" horiz-adv-x="993" d="M297 1059h141q4 -252 32 -482.5t73 -433.5q82 100 161.5 225.5t147.5 251t118 241.5t74 198h134q-29 -106 -88.5 -239.5t-142.5 -276t-183 -286.5t-207 -273l-86 -363h-133l92 383q-23 104 -44 229t-39.5 262.5t-32 281t-17.5 282.5z" />
<glyph unicode="&#x4b0;" horiz-adv-x="1136" d="M330 457l26 110h277l2 6q-39 104 -75 215t-69.5 219.5t-64.5 214t-57 197.5h151q41 -176 94.5 -363.5t118.5 -348.5q70 78 147.5 168t153.5 184t143.5 186t120.5 174h166q-141 -188 -319 -407t-371 -439l-2 -6h281l-27 -110h-281l-106 -457h-139l106 457h-276z" />
<glyph unicode="&#x4b1;" horiz-adv-x="997" d="M164 0l24 109h232q-41 203 -76 449.5t-43 500.5h141q4 -252 32 -482.5t73 -433.5q82 106 160.5 232.5t146.5 250.5t119 237.5t76 195.5h133q-25 -96 -76 -211t-121 -239t-155 -252t-179 -248h232l-25 -109h-293l-90 -379h-133l90 379h-268z" />
<glyph unicode="&#x4b2;" horiz-adv-x="1167" d="M20 0l646 750l-289 669h151l244 -575q133 152 250 296t215 279h156q-143 -186 -281.5 -350t-286.5 -328q61 -150 128 -305t128 -315h146l-121 -500h-133l92 379h-88q-20 63 -48 138t-60.5 158t-69.5 170t-76 173l-535 -639h-168z" />
<glyph unicode="&#x4b3;" horiz-adv-x="966" d="M20 0l496 555l-262 504h156l206 -428q94 115 183.5 228.5t142.5 199.5h148q-90 -135 -200 -270.5t-212 -253.5q43 -84 99.5 -195t101.5 -227h120l-98 -406h-129l72 293h-64q-14 47 -36.5 105.5t-50 120t-56.5 122t-53 109.5l-402 -457h-162z" />
<glyph unicode="&#x4b4;" horiz-adv-x="1593" d="M344 1298l27 121h884l-28 -121h-371l-283 -1177h730l311 1298h139l-311 -1298h143l-121 -500h-133l92 379h-1017l311 1298h-373z" />
<glyph unicode="&#x4b5;" horiz-adv-x="1294" d="M242 946l26 113h613l-27 -113h-219l-86 -354q-16 -72 -35.5 -151t-19.5 -150q0 -41 9 -76t31.5 -61.5t59.5 -41t94 -14.5q90 0 170 32t141 93q-2 27 2.5 63t12.5 73.5t17 75.5t18 71l137 553h133l-162 -656q-16 -61 -24.5 -112t4 -89t53.5 -60.5t123 -26.5l-103 -408 h-129l80 311q-41 10 -70.5 36t-48.5 55q-12 -14 -41.5 -37t-75.5 -44.5t-109.5 -37t-143.5 -15.5q-88 0 -147.5 22.5t-94.5 62.5t-50 94.5t-15 117.5q0 59 10 126t26 134l101 414h-260z" />
<glyph unicode="&#x4b6;" horiz-adv-x="1169" d="M313 848q0 82 25 184l96 387h139l-100 -405q-10 -41 -15 -76t-5 -70q0 -104 62.5 -166.5t209.5 -62.5q84 0 164 18.5t125 30.5l176 731h139l-313 -1298h143l-121 -500h-133l92 379h-149l137 567q-18 -8 -55 -17t-79 -16.5t-84 -12.5t-73 -5q-195 0 -288 86t-93 246z" />
<glyph unicode="&#x4b7;" horiz-adv-x="989" d="M242 639q0 53 14 109l76 311h133l-70 -281q-18 -68 -18 -116q0 -72 43 -110t147 -38q100 0 174 14.5t115 30.5l121 500h133l-227 -946h121l-99 -406h-129l72 293h-125l106 449q-12 -8 -38.5 -17.5t-63.5 -17.5t-79 -13.5t-83 -5.5q-324 0 -323 244z" />
<glyph unicode="&#x4b8;" horiz-adv-x="1181" d="M313 848q0 82 25 184l96 387h139l-100 -405q-10 -41 -15 -76t-5 -70q0 -90 46 -148t154 -75l66 270h115l-68 -276q82 4 158.5 20.5t119.5 28.5l177 731h139l-342 -1419h-139l137 567q-18 -8 -51 -16t-73 -15.5t-81 -12.5t-74 -7l-65 -268h-115l66 272q-158 18 -234 102.5 t-76 225.5z" />
<glyph unicode="&#x4b9;" horiz-adv-x="1003" d="M242 639q0 53 14 109l76 311h133l-70 -281q-18 -68 -18 -116q0 -66 37 -104t123 -44l47 191h110l-45 -189q70 6 122 18.5t85 24.5l121 500h133l-254 -1059h-133l106 449q-20 -14 -79.5 -30t-128.5 -22l-48 -196h-110l47 196q-268 23 -268 242z" />
<glyph unicode="&#x4ba;" horiz-adv-x="1241" d="M170 0l340 1419h139l-129 -542q14 8 48 17t73 17.5t77 13.5t62 5q225 0 335 -82t110 -268q0 -43 -7.5 -92.5t-21.5 -106.5l-92 -381h-139l98 399q23 90 22 164q0 51 -13 96.5t-47 78t-89 51t-141 18.5t-166 -15.5t-140 -35.5l-180 -756h-139z" />
<glyph unicode="&#x4bb;" horiz-adv-x="1116" d="M170 0l373 1565l139 24l-135 -559q129 53 244 53q70 0 129 -20.5t104 -61t70.5 -103t25.5 -148.5q0 -53 -8 -109.5t-22 -114.5l-127 -526h-134l113 471q16 68 30.5 137.5t14.5 132.5q0 61 -19.5 103.5t-51 68t-74.5 37t-90 11.5q-59 0 -120 -12.5t-114 -30.5l-215 -918 h-133z" />
<glyph unicode="&#x4bc;" horiz-adv-x="1587" d="M242 915q0 76 39 160l110 -14q-33 -72 -33 -127q0 -129 189 -135q31 127 93 244.5t154.5 207.5t213 144.5t268.5 54.5q121 0 204 -37t135 -99.5t75.5 -147.5t23.5 -181q0 -72 -14 -148.5t-39 -156.5h-989q-4 -33 -6 -65.5t-2 -63.5q0 -117 29.5 -203t82.5 -142t127 -84 t162 -28q86 0 164 19.5t166 56.5l14 -121q-98 -41 -186 -60.5t-187 -19.5q-113 0 -208 33t-164.5 103.5t-108.5 180t-39 265.5q0 33 2 64.5t6 64.5q-141 10 -211.5 71.5t-70.5 163.5zM696 799h852q16 53 21.5 104t5.5 98q0 150 -71.5 240t-235.5 90q-111 0 -203 -44 t-165 -117.5t-124 -170t-80 -200.5z" />
<glyph unicode="&#x4bd;" horiz-adv-x="1245" d="M201 682q0 72 35 154l106 -15q-12 -29 -17.5 -56.5t-5.5 -49.5q0 -133 148 -160q25 106 74 201.5t123.5 168t172 115.5t218.5 43q143 0 220 -74.5t77 -197.5q0 -115 -56.5 -186.5t-158 -113.5t-243.5 -60.5t-316 -26.5v-43q0 -59 12 -110.5t45 -89.5t91 -60.5t151 -22.5 q72 0 144.5 20.5t137.5 61.5l15 -123q-70 -39 -154 -60.5t-170 -21.5q-113 0 -189.5 29t-125 80t-69 123t-20.5 158q0 18 1.5 35.5t3.5 35.5q-111 20 -180.5 81t-69.5 165zM598 545q174 4 293 22.5t191.5 51t103.5 78.5t31 106q0 80 -48.5 120t-126.5 40q-82 0 -153.5 -34 t-129 -91.5t-99.5 -133t-62 -159.5z" />
<glyph unicode="&#x4be;" horiz-adv-x="1581" d="M242 915q0 76 39 160l110 -14q-33 -72 -33 -127q0 -129 189 -135q31 127 93 244.5t154.5 207.5t213 144.5t268.5 54.5q121 0 204 -37t135 -99.5t75.5 -147.5t23.5 -181q0 -72 -14 -148.5t-39 -156.5h-989q-4 -33 -6 -65.5t-2 -63.5q0 -117 29.5 -203t82.5 -142t127 -84 t162 -28q86 0 164 19.5t166 56.5l14 -121q-98 -41 -186 -60.5t-187 -19.5l-84 -348h-133l86 361q-86 16 -157.5 57t-123 110.5t-80 169t-28.5 232.5q0 33 2 64.5t6 64.5q-141 10 -211.5 71.5t-70.5 163.5zM696 799h852q16 53 21.5 104t5.5 98q0 150 -71.5 240t-235.5 90 q-111 0 -203 -44t-165 -117.5t-124 -170t-80 -200.5z" />
<glyph unicode="&#x4bf;" horiz-adv-x="1245" d="M201 682q0 72 35 154l106 -15q-12 -29 -17.5 -56.5t-5.5 -49.5q0 -133 148 -160q25 106 74 201.5t123.5 168t172 115.5t218.5 43q143 0 220 -74.5t77 -197.5q0 -115 -56.5 -186.5t-158 -113.5t-243.5 -60.5t-316 -26.5v-43q0 -59 12 -110.5t45 -89.5t91 -60.5t151 -22.5 q72 0 144.5 20.5t137.5 61.5l15 -123q-66 -37 -147 -58.5t-163 -23.5l-63 -268h-129l65 277q-162 27 -226.5 128t-64.5 253q0 18 1.5 35.5t3.5 35.5q-111 20 -180.5 81t-69.5 165zM598 545q174 4 293 22.5t191.5 51t103.5 78.5t31 106q0 80 -48.5 120t-126.5 40 q-82 0 -153.5 -34t-129 -91.5t-99.5 -133t-62 -159.5z" />
<glyph unicode="&#x4c0;" horiz-adv-x="471" d="M170 0l340 1419h139l-338 -1419h-141z" />
<glyph unicode="&#x4c1;" horiz-adv-x="1589" d="M20 0q57 90 136.5 188.5t173.5 196.5t198.5 191.5t214.5 175.5q-98 168 -191 333.5t-187 333.5h155q88 -166 183.5 -341t185.5 -324l160 665h131l-160 -665q100 86 204.5 181t198 185t171 169t124.5 130h158q-29 -33 -77 -83t-109.5 -111.5t-132 -129t-141 -132 t-136.5 -124t-119 -104.5q154 -180 249 -367.5t167 -367.5h-154q-25 84 -74 186.5t-108 200.5t-120.5 183t-110.5 135l-172 -705h-131l170 705q-72 -47 -164 -127t-187.5 -176.5t-187.5 -201t-166 -200.5h-152zM926 1805l115 28q-4 -70 29.5 -113.5t119.5 -43.5q70 0 120 44 t79 113l102 -28q-47 -117 -124.5 -180.5t-204.5 -63.5q-115 0 -179.5 63.5t-56.5 180.5z" />
<glyph unicode="&#x4c2;" horiz-adv-x="1689" d="M47 4l37 117q29 -16 52.5 -19.5t49.5 -3.5q98 0 169 50.5t115 135.5t65.5 194.5t21.5 230.5q0 47 -7 92t-25.5 79.5t-51.5 56t-82 21.5q-35 0 -80 -12l-10 113q68 18 121 18q135 0 198.5 -97t63.5 -253q0 -66 -6 -121h246l108 453h133l-108 -453h231q20 98 60.5 183 t99.5 150t140 101.5t186 36.5q27 0 54 -5t50 -15l-39 -115q-23 8 -39 11t-43 3q-104 0 -175 -56t-114 -144t-61 -194.5t-18 -207.5q0 -49 5 -95t24.5 -82t56 -58.5t100.5 -22.5q43 0 63.5 4t36.5 13l8 -111q-14 -6 -54 -15.5t-89 -9.5q-72 0 -125 29t-87 78t-50 113.5 t-16 136.5q0 41 2 80t6 80h-240l-119 -494h-133l119 494h-231q-23 -135 -71 -232.5t-111.5 -161t-139.5 -93.5t-156 -30q-76 0 -141 27zM899 1483l115 28q-4 -70 29.5 -113.5t119.5 -43.5q70 0 120 44t79 113l102 -28q-47 -117 -124.5 -180.5t-204.5 -63.5 q-115 0 -179.5 63.5t-56.5 180.5z" />
<glyph unicode="&#x4c3;" horiz-adv-x="1179" d="M170 0l340 1419h137l-155 -653q94 72 204.5 164t218 184t198.5 173t147 132h184q-61 -57 -150.5 -137t-188.5 -167t-204.5 -175t-202.5 -162q135 0 229.5 -33.5t154 -94t86 -142.5t26.5 -178q0 -123 -42 -249t-123 -228.5t-199.5 -167t-272.5 -64.5q-29 0 -57.5 2 t-59.5 6l33 119q43 -6 84 -6q115 0 206 53t154.5 136t97.5 185.5t34 200.5q0 96 -28 163t-77 109t-117.5 61.5t-148.5 19.5q-51 0 -105.5 -7.5t-111.5 -19.5l-152 -643h-139z" />
<glyph unicode="&#x4c4;" horiz-adv-x="985" d="M170 0l256 1059h133l-110 -457q74 49 157.5 112.5t162.5 128t142.5 122t96.5 94.5h161q-33 -43 -99 -103.5t-144 -125t-156 -124t-135 -96.5q90 -4 155.5 -36.5t108.5 -86t64.5 -123t21.5 -147.5q0 -113 -32.5 -220.5t-95 -191.5t-155 -135t-208.5 -51q-23 0 -45.5 2 t-45.5 6l33 115q31 -6 62 -6q82 0 148.5 42t113.5 108.5t72.5 149.5t25.5 167q0 80 -22.5 137t-62.5 93t-94 52.5t-118 16.5q-61 0 -139 -17l-119 -485h-133z" />
<glyph unicode="&#x4c5;" horiz-adv-x="1286" d="M37 102q68 12 125 34t108.5 66t99.5 116.5t97 187.5q57 131 108.5 321.5t116.5 462.5l31 129h723l-313 -1298h135q-6 -76 -35 -150.5t-75 -140.5t-105.5 -121t-126.5 -94l-84 72q76 53 150.5 132t103.5 181h-131l311 1298h-426l-19 -75q-43 -174 -99 -374t-128 -382 q-20 -53 -58 -131t-102.5 -152.5t-161 -131t-233.5 -66.5z" />
<glyph unicode="&#x4c6;" horiz-adv-x="1136" d="M57 92q106 6 176 72.5t119 175.5t84 252t72 305l37 162h616l-227 -946h127q-14 -76 -47 -144.5t-74 -127t-88 -104.5t-88 -77l-78 68q18 12 48 40.5t61.5 65.5t59.5 80t42 86h-123l225 946h-344l-10 -41q-27 -106 -51.5 -214.5t-55 -209t-69.5 -188.5t-95.5 -154.5 t-133 -108.5t-181.5 -48z" />
<glyph unicode="&#x4c7;" horiz-adv-x="1341" d="M170 0l340 1419h139l-151 -616h735l147 616h140l-351 -1472q-18 -74 -42.5 -135.5t-63.5 -104.5t-92 -66.5t-127 -23.5q-41 0 -67.5 4t-57.5 14l37 111q16 -6 39.5 -9t42.5 -3q72 0 117.5 46t68.5 144l182 758h-733l-164 -682h-139z" />
<glyph unicode="&#x4c8;" horiz-adv-x="1103" d="M170 0l254 1059h133l-108 -453h512l108 453h133l-268 -1125q-16 -70 -41 -128t-61.5 -100t-88 -65.5t-120.5 -23.5q-31 0 -62 3t-74 18l41 112q25 -10 47.5 -13t42.5 -3q74 0 115 46t66 150l133 564h-512l-117 -494h-133z" />
<glyph unicode="&#x4c9;" horiz-adv-x="1359" d="M170 0l340 1419h139l-151 -616h735l147 616h140l-310 -1298h133q-6 -76 -34.5 -150.5t-74.5 -140.5t-105.5 -121t-127.5 -94l-83 72q76 53 150.5 132t102.5 181h-129l164 682h-733l-164 -682h-139z" />
<glyph unicode="&#x4ca;" horiz-adv-x="1177" d="M170 0l254 1059h133l-108 -453h512l108 453h133l-227 -946h127q-14 -76 -47 -144.5t-74 -127t-88 -104.5t-88 -77l-78 68q18 12 48 40.5t61.5 65.5t59.5 80t42 86h-123l117 494h-512l-117 -494h-133z" />
<glyph unicode="&#x4cb;" horiz-adv-x="1150" d="M313 848q0 82 25 184l96 387h139l-100 -405q-10 -41 -15 -76t-5 -70q0 -104 62.5 -166.5t209.5 -62.5q84 0 164 18.5t125 30.5l176 731h139l-342 -1419h-139l-92 -379h-133l120 500h134l108 446q-18 -8 -55 -17t-79 -16.5t-84 -12.5t-73 -5q-195 0 -288 86t-93 246z" />
<glyph unicode="&#x4cc;" horiz-adv-x="1003" d="M242 639q0 53 14 109l76 311h133l-70 -281q-18 -68 -18 -116q0 -72 43 -110t147 -38q100 0 174 14.5t115 30.5l121 500h133l-254 -1059h-125l-72 -293h-129l99 406h121l79 336q-12 -8 -38.5 -17.5t-63.5 -17.5t-79 -13.5t-83 -5.5q-324 0 -323 244z" />
<glyph unicode="&#x4cd;" horiz-adv-x="1644" d="M143 0q104 383 218 741.5t219 677.5h139q31 -123 62.5 -262t60 -279.5t52.5 -272.5t40 -240q76 117 170 259t190.5 285.5t188.5 276.5t166 233h143q-18 -170 -39.5 -332.5t-46.5 -322.5t-53.5 -319.5t-59.5 -323.5h148q-6 -76 -35 -150.5t-75 -140.5t-105.5 -121 t-126.5 -94l-84 72q76 53 150.5 132t103.5 181h-142q72 334 124.5 637t90.5 573q-31 -39 -85 -115.5t-119.5 -173t-136 -203t-136 -205.5t-119 -180t-81.5 -128h-123q-8 57 -22.5 141t-32 180.5t-37 198.5t-39 195.5t-37 169t-29.5 122.5q-90 -270 -182 -579t-180 -633h-140 z" />
<glyph unicode="&#x4ce;" horiz-adv-x="1370" d="M119 0q74 262 160 531.5t176 527.5h137q41 -162 78 -350.5t82 -411.5q88 137 168.5 260t146.5 222.5t116 171t77 108.5h135q-6 -96 -20.5 -215t-32 -244t-37 -251t-39.5 -236h127q-14 -76 -47 -144.5t-74 -127t-88 -104.5t-88 -77l-78 68q18 12 48 40.5t61.5 65.5t59 80 t42.5 86h-111q37 193 71 408t68 464q-74 -109 -132 -196.5t-110 -169.5t-105.5 -168t-118.5 -191h-125q-20 98 -38 187.5t-35.5 177.5t-35.5 176t-43 182q-45 -127 -82 -241.5t-69.5 -222t-62.5 -208t-56 -198.5h-125z" />
<glyph unicode="&#x4cf;" horiz-adv-x="456" d="M168 0l344 1419h125l-342 -1419h-127z" />
<glyph unicode="&#x4d0;" horiz-adv-x="1273" d="M41 0q211 381 434 741.5t438 677.5h150q51 -299 101 -646t98 -773h-144q-10 98 -21.5 194.5t-23.5 194.5h-667q-53 -94 -106.5 -190.5t-106.5 -198.5h-152zM475 508h584q-23 184 -49.5 369.5t-57.5 382.5q-125 -190 -243.5 -375t-233.5 -377zM770 1805l115 28 q-4 -70 29.5 -113.5t119.5 -43.5q70 0 120 44t79 113l102 -28q-47 -117 -124.5 -180.5t-204.5 -63.5q-115 0 -179.5 63.5t-56.5 180.5z" />
<glyph unicode="&#x4d1;" horiz-adv-x="1069" d="M201 365q0 164 53 297t148.5 226t225.5 144t283 51q127 0 244 -43l-158 -637q-12 -51 -20 -96t-8 -86q0 -55 10 -104t37 -109l-137 -20q-12 25 -21.5 56.5t-13.5 64.5q-72 -70 -151 -103t-163 -33q-66 0 -125 22.5t-104 70t-72.5 122t-27.5 177.5zM336 391 q0 -84 16.5 -140t45 -90t66.5 -49.5t81 -15.5q84 0 157.5 40t139.5 114q0 55 16 127t31 129l108 438q-37 8 -67.5 12.5t-63.5 4.5q-127 0 -225 -49.5t-165.5 -129.5t-103.5 -182t-36 -209zM649 1483l115 28q-4 -70 29.5 -113.5t119.5 -43.5q70 0 120 44t79 113l102 -28 q-47 -117 -124.5 -180.5t-204.5 -63.5q-115 0 -179.5 63.5t-56.5 180.5z" />
<glyph unicode="&#x4d2;" horiz-adv-x="1273" d="M41 0q211 381 434 741.5t438 677.5h150q51 -299 101 -646t98 -773h-144q-10 98 -21.5 194.5t-23.5 194.5h-667q-53 -94 -106.5 -190.5t-106.5 -198.5h-152zM475 508h584q-23 184 -49.5 369.5t-57.5 382.5q-125 -190 -243.5 -375t-233.5 -377zM782 1681q0 41 27 76t76 35 q47 0 68.5 -27t21.5 -59q0 -39 -27.5 -75t-76.5 -36q-45 0 -67 25.5t-22 60.5zM1135 1681q0 41 27.5 76t76.5 35q45 0 66.5 -27t21.5 -59q0 -39 -26.5 -75t-75.5 -36q-47 0 -68.5 25.5t-21.5 60.5z" />
<glyph unicode="&#x4d3;" horiz-adv-x="1069" d="M201 365q0 164 53 297t148.5 226t225.5 144t283 51q127 0 244 -43l-158 -637q-12 -51 -20 -96t-8 -86q0 -55 10 -104t37 -109l-137 -20q-12 25 -21.5 56.5t-13.5 64.5q-72 -70 -151 -103t-163 -33q-66 0 -125 22.5t-104 70t-72.5 122t-27.5 177.5zM336 391 q0 -84 16.5 -140t45 -90t66.5 -49.5t81 -15.5q84 0 157.5 40t139.5 114q0 55 16 127t31 129l108 438q-37 8 -67.5 12.5t-63.5 4.5q-127 0 -225 -49.5t-165.5 -129.5t-103.5 -182t-36 -209zM632 1366q0 41 27 76t76 35q47 0 68.5 -27t21.5 -59q0 -39 -27.5 -75t-76.5 -36 q-45 0 -67 25.5t-22 60.5zM985 1366q0 41 27.5 76t76.5 35q45 0 66.5 -27t21.5 -59q0 -39 -26.5 -75t-75.5 -36q-47 0 -68.5 25.5t-21.5 60.5z" />
<glyph unicode="&#x4d4;" horiz-adv-x="1824" d="M37 0q143 205 283.5 388t284 355t293 338t314.5 338h842l-26 -121h-617l-121 -493h545l-27 -119h-540l-142 -565h664l-25 -121h-802l92 389h-584q-76 -98 -146.5 -195.5t-136.5 -193.5h-151zM565 508h518l195 811q-61 -61 -143 -147.5t-175.5 -192t-193.5 -225 t-201 -246.5z" />
<glyph unicode="&#x4d5;" horiz-adv-x="1583" d="M111 248q0 119 46 193.5t138 117.5t230.5 62.5t322.5 27.5q0 10 1 18.5t1 16.5q0 90 -22.5 145.5t-62.5 85t-93.5 40t-112.5 10.5q-127 0 -276 -72l-15 119q61 29 149.5 50t180.5 21q152 0 237 -62.5t117 -166.5q78 115 195 172t233 57q59 0 112.5 -16t93.5 -50t63.5 -85 t23.5 -121q0 -121 -45 -194.5t-137 -116.5t-229.5 -61.5t-321.5 -24.5q0 -10 -1 -20.5t-1 -18.5q0 -90 22.5 -145.5t61.5 -84t91 -38t112 -9.5q127 0 276 72l15 -123q-61 -29 -149.5 -50.5t-180.5 -21.5q-154 0 -238 61.5t-119 166.5q-72 -102 -179 -165t-249 -63 q-59 0 -112 17.5t-93 51.5t-62.5 85t-22.5 119zM246 256q0 -78 48 -119t128 -41q61 0 124.5 24.5t119 76t97.5 132.5t64 191q-176 -4 -289.5 -21.5t-178 -50t-89 -81t-24.5 -111.5zM961 535q174 2 286.5 20t177 51t89 82t24.5 115q0 78 -48 119t-128 41q-61 0 -122.5 -25 t-117 -77t-98.5 -133t-63 -193z" />
<glyph unicode="&#x4d6;" horiz-adv-x="1073" d="M170 0l340 1419h793l-27 -121h-658l-120 -493h585l-26 -119h-582l-141 -565h704l-24 -121h-844zM694 1805l115 28q-4 -70 29.5 -113.5t119.5 -43.5q70 0 120 44t79 113l102 -28q-47 -117 -124.5 -180.5t-204.5 -63.5q-115 0 -179.5 63.5t-56.5 180.5z" />
<glyph unicode="&#x4d7;" horiz-adv-x="999" d="M201 365q0 131 40 260t117.5 231t191.5 164.5t259 62.5q143 0 220 -74.5t77 -197.5q0 -115 -56.5 -186.5t-157.5 -113.5t-243.5 -60.5t-316.5 -26.5v-43q0 -59 12 -110.5t45 -89.5t91.5 -60.5t150.5 -22.5q72 0 144.5 20.5t137.5 61.5l15 -123q-70 -39 -154 -60.5 t-170 -21.5q-113 0 -189.5 29t-124.5 80t-68.5 123t-20.5 158zM352 545q174 4 293 22.5t191.5 51t103.5 78.5t31 106q0 80 -48 120t-126 40q-82 0 -154 -34t-129 -91.5t-99 -133t-63 -159.5zM580 1483l115 28q-4 -70 29.5 -113.5t119.5 -43.5q70 0 120 44t79 113l102 -28 q-47 -117 -124.5 -180.5t-204.5 -63.5q-115 0 -179.5 63.5t-56.5 180.5z" />
<glyph unicode="&#x4d8;" horiz-adv-x="1415" d="M283 434q0 72 14 148.5t39 156.5h987q4 33 7 65t3 64q0 117 -29.5 203t-83 142.5t-127 84t-161.5 27.5q-86 0 -164 -19.5t-166 -56.5l-14 121q98 41 186 60.5t187 19.5q113 0 208 -33t164.5 -103.5t108.5 -180t39 -265.5q0 -158 -49.5 -317.5t-146.5 -288.5t-238.5 -211 t-325.5 -82q-121 0 -204 36t-135 99.5t-75.5 148.5t-23.5 181zM422 418q0 -150 71.5 -240t235.5 -90q111 0 202 44t163.5 118t124 170t79.5 201h-849q-16 -53 -21.5 -104.5t-5.5 -98.5z" />
<glyph unicode="&#x4d9;" horiz-adv-x="999" d="M209 248q0 115 56.5 186.5t157.5 113.5t243.5 60.5t316.5 26.5v43q0 57 -12.5 109.5t-45 90t-91 60.5t-150.5 23q-72 0 -144.5 -20.5t-138.5 -61.5l-14 122q70 39 154 60.5t170 21.5q113 0 189.5 -28.5t124.5 -79.5t68.5 -123t20.5 -158q0 -133 -40 -261t-117.5 -230.5 t-191.5 -165t-259 -62.5q-143 0 -220 75t-77 198zM344 256q0 -80 48 -120t126 -40q82 0 153.5 34t129 91.5t98.5 133t64 159.5q-176 -4 -294 -22.5t-190.5 -51t-103.5 -79t-31 -105.5z" />
<glyph unicode="&#x4da;" horiz-adv-x="1415" d="M283 434q0 72 14 148.5t39 156.5h987q4 33 7 65t3 64q0 117 -29.5 203t-83 142.5t-127 84t-161.5 27.5q-86 0 -164 -19.5t-166 -56.5l-14 121q98 41 186 60.5t187 19.5q113 0 208 -33t164.5 -103.5t108.5 -180t39 -265.5q0 -158 -49.5 -317.5t-146.5 -288.5t-238.5 -211 t-325.5 -82q-121 0 -204 36t-135 99.5t-75.5 148.5t-23.5 181zM422 418q0 -150 71.5 -240t235.5 -90q111 0 202 44t163.5 118t124 170t79.5 201h-849q-16 -53 -21.5 -104.5t-5.5 -98.5zM806 1681q0 41 27 76t76 35q47 0 68.5 -27t21.5 -59q0 -39 -27.5 -75t-76.5 -36 q-45 0 -67 25.5t-22 60.5zM1159 1681q0 41 27.5 76t76.5 35q45 0 66.5 -27t21.5 -59q0 -39 -26.5 -75t-75.5 -36q-47 0 -68.5 25.5t-21.5 60.5z" />
<glyph unicode="&#x4db;" horiz-adv-x="999" d="M209 248q0 115 56.5 186.5t157.5 113.5t243.5 60.5t316.5 26.5v43q0 57 -12.5 109.5t-45 90t-91 60.5t-150.5 23q-72 0 -144.5 -20.5t-138.5 -61.5l-14 122q70 39 154 60.5t170 21.5q113 0 189.5 -28.5t124.5 -79.5t68.5 -123t20.5 -158q0 -133 -40 -261t-117.5 -230.5 t-191.5 -165t-259 -62.5q-143 0 -220 75t-77 198zM344 256q0 -80 48 -120t126 -40q82 0 153.5 34t129 91.5t98.5 133t64 159.5q-176 -4 -294 -22.5t-190.5 -51t-103.5 -79t-31 -105.5zM505 1366q0 41 27 76t76 35q47 0 68.5 -27t21.5 -59q0 -39 -27.5 -75t-76.5 -36 q-45 0 -67 25.5t-22 60.5zM858 1366q0 41 27.5 76t76.5 35q45 0 66.5 -27t21.5 -59q0 -39 -26.5 -75t-75.5 -36q-47 0 -68.5 25.5t-21.5 60.5z" />
<glyph unicode="&#x4dc;" horiz-adv-x="1589" d="M20 0q57 90 136.5 188.5t173.5 196.5t198.5 191.5t214.5 175.5q-98 168 -191 333.5t-187 333.5h155q88 -166 183.5 -341t185.5 -324l160 665h131l-160 -665q100 86 204.5 181t198 185t171 169t124.5 130h158q-29 -33 -77 -83t-109.5 -111.5t-132 -129t-141 -132 t-136.5 -124t-119 -104.5q154 -180 249 -367.5t167 -367.5h-154q-25 84 -74 186.5t-108 200.5t-120.5 183t-110.5 135l-172 -705h-131l170 705q-72 -47 -164 -127t-187.5 -176.5t-187.5 -201t-166 -200.5h-152zM917 1681q0 41 27 76t76 35q47 0 68.5 -27t21.5 -59 q0 -39 -27.5 -75t-76.5 -36q-45 0 -67 25.5t-22 60.5zM1270 1681q0 41 27.5 76t76.5 35q45 0 66.5 -27t21.5 -59q0 -39 -26.5 -75t-75.5 -36q-47 0 -68.5 25.5t-21.5 60.5z" />
<glyph unicode="&#x4dd;" horiz-adv-x="1689" d="M47 4l37 117q29 -16 52.5 -19.5t49.5 -3.5q98 0 169 50.5t115 135.5t65.5 194.5t21.5 230.5q0 47 -7 92t-25.5 79.5t-51.5 56t-82 21.5q-35 0 -80 -12l-10 113q68 18 121 18q135 0 198.5 -97t63.5 -253q0 -66 -6 -121h246l108 453h133l-108 -453h231q20 98 60.5 183 t99.5 150t140 101.5t186 36.5q27 0 54 -5t50 -15l-39 -115q-23 8 -39 11t-43 3q-104 0 -175 -56t-114 -144t-61 -194.5t-18 -207.5q0 -49 5 -95t24.5 -82t56 -58.5t100.5 -22.5q43 0 63.5 4t36.5 13l8 -111q-14 -6 -54 -15.5t-89 -9.5q-72 0 -125 29t-87 78t-50 113.5 t-16 136.5q0 41 2 80t6 80h-240l-119 -494h-133l119 494h-231q-23 -135 -71 -232.5t-111.5 -161t-139.5 -93.5t-156 -30q-76 0 -141 27zM872 1366q0 41 27 76t76 35q47 0 68.5 -27t21.5 -59q0 -39 -27.5 -75t-76.5 -36q-45 0 -67 25.5t-22 60.5zM1225 1366q0 41 27.5 76 t76.5 35q45 0 66.5 -27t21.5 -59q0 -39 -26.5 -75t-75.5 -36q-47 0 -68.5 25.5t-21.5 60.5z" />
<glyph unicode="&#x4de;" horiz-adv-x="1064" d="M78 61l67 121q12 -10 40 -25.5t68 -29.5t93 -25.5t117 -11.5q94 0 179 18.5t148.5 61.5t100.5 111.5t37 169.5q0 76 -32 124t-85 74.5t-123 35.5t-145 9h-86l28 119h111q80 0 157.5 21.5t138 61.5t98.5 99.5t38 134.5q0 43 -11 79t-40 62.5t-78 42t-125 15.5 q-72 0 -126 -8t-94 -19.5t-66.5 -23.5t-45.5 -21l-20 109q16 12 56 26.5t90 28t105.5 21.5t100.5 8q86 0 160 -17.5t126 -55.5t81.5 -98t29.5 -144q0 -82 -32.5 -144.5t-81.5 -108.5t-109.5 -76t-116.5 -44q45 -14 88.5 -37t77 -58.5t54 -87t20.5 -118.5q0 -143 -52 -237.5 t-138 -151t-198 -80t-228 -23.5q-80 0 -144.5 11.5t-112.5 25.5t-78 29.5t-42 25.5zM604 1667q0 41 27 76t76 35q47 0 68.5 -27t21.5 -59q0 -39 -27.5 -75t-76.5 -36q-45 0 -67 25.5t-22 60.5zM957 1667q0 41 27.5 76t76.5 35q45 0 66.5 -27t21.5 -59q0 -39 -26.5 -75 t-75.5 -36q-47 0 -68.5 25.5t-21.5 60.5z" />
<glyph unicode="&#x4df;" horiz-adv-x="849" d="M78 23l41 118q12 -6 31.5 -13t49 -15.5t71.5 -13.5t100 -5q55 0 115.5 11.5t109.5 40t81 76.5t32 124q0 51 -27 81t-64.5 46t-83 21.5t-81.5 5.5h-93l27 112h94q45 0 98.5 8.5t98.5 32t74.5 66.5t29.5 112q0 37 -16 63t-44 41t-64.5 21.5t-75.5 6.5q-72 0 -142.5 -11.5 t-117.5 -33.5l-11 118q57 18 129 31.5t144 13.5q63 0 123.5 -12t106.5 -42t73.5 -79t27.5 -121q0 -92 -56 -161.5t-169 -108.5q74 -27 113 -81t39 -122q0 -100 -39 -171.5t-105.5 -118t-157.5 -68t-196 -21.5q-92 0 -165 16.5t-101 31.5zM469 1366q0 41 27 76t76 35 q47 0 68.5 -27t21.5 -59q0 -39 -27.5 -75t-76.5 -36q-45 0 -67 25.5t-22 60.5zM822 1366q0 41 27.5 76t76.5 35q45 0 66.5 -27t21.5 -59q0 -39 -26.5 -75t-75.5 -36q-47 0 -68.5 25.5t-21.5 60.5z" />
<glyph unicode="&#x4e0;" horiz-adv-x="1056" d="M78 70l61 114q53 -43 143.5 -68.5t190.5 -25.5q211 0 331 95.5t120 263.5q0 131 -87 190t-292 59h-33l23 90q74 63 149.5 135t147 142t132 130t103.5 103h-641l27 121h813l-21 -90q-45 -53 -103.5 -116.5t-127 -132t-145 -142.5t-158.5 -143q182 -29 271 -108t89 -241 q0 -100 -41 -187t-117.5 -151.5t-188.5 -101.5t-253 -37q-121 0 -226.5 27t-166.5 74z" />
<glyph unicode="&#x4e1;" horiz-adv-x="811" d="M-45 -313l45 112q121 -57 266 -57q86 0 160 19.5t128 60.5t85 106.5t31 157.5q0 145 -91.5 200.5t-285.5 55.5l20 100q68 57 139.5 126t138 137.5t125 131t99.5 109.5h-565l24 113h705l-25 -98q-41 -55 -98 -123t-121.5 -136.5t-134.5 -136t-137 -123.5 q94 -10 159.5 -39.5t107.5 -72.5t60.5 -100.5t18.5 -123.5q0 -127 -45 -218t-120 -150.5t-172 -88t-204 -28.5q-82 0 -162.5 15.5t-150.5 50.5z" />
<glyph unicode="&#x4e2;" horiz-adv-x="1363" d="M170 0l342 1419h133l-283 -1173q51 70 127 163t166 199.5t189.5 219t200 219t195.5 203t177 169.5h125l-342 -1419h-133l285 1190q-66 -59 -152 -150.5t-183 -199t-198.5 -224t-196 -229.5t-176 -213t-139.5 -174h-137zM813 1647l27 117h531l-27 -117h-531z" />
<glyph unicode="&#x4e3;" horiz-adv-x="1069" d="M201 272q0 59 10 126t27 134l127 527h133l-113 -467q-16 -72 -35.5 -151t-19.5 -150q0 -41 9 -76t31.5 -61.5t59.5 -41t94 -14.5q98 0 173 39t141 113q0 55 16 127t31 129l137 553h133l-162 -656q-12 -51 -20 -96t-8 -86q0 -55 10 -104t37 -109l-138 -20q-12 25 -21 56.5 t-13 64.5q-72 -70 -153 -102t-179 -32q-88 0 -147.5 22.5t-94.5 62.5t-50 94.5t-15 117.5zM561 1325l27 117h531l-27 -117h-531z" />
<glyph unicode="&#x4e4;" horiz-adv-x="1363" d="M170 0l342 1419h133l-283 -1173q51 70 127 163t166 199.5t189.5 219t200 219t195.5 203t177 169.5h125l-342 -1419h-133l285 1190q-66 -59 -152 -150.5t-183 -199t-198.5 -224t-196 -229.5t-176 -213t-139.5 -174h-137zM811 1681q0 41 27 76t76 35q47 0 68.5 -27 t21.5 -59q0 -39 -27.5 -75t-76.5 -36q-45 0 -67 25.5t-22 60.5zM1164 1681q0 41 27.5 76t76.5 35q45 0 66.5 -27t21.5 -59q0 -39 -26.5 -75t-75.5 -36q-47 0 -68.5 25.5t-21.5 60.5z" />
<glyph unicode="&#x4e5;" horiz-adv-x="1069" d="M201 272q0 59 10 126t27 134l127 527h133l-113 -467q-16 -72 -35.5 -151t-19.5 -150q0 -41 9 -76t31.5 -61.5t59.5 -41t94 -14.5q98 0 173 39t141 113q0 55 16 127t31 129l137 553h133l-162 -656q-12 -51 -20 -96t-8 -86q0 -55 10 -104t37 -109l-138 -20q-12 25 -21 56.5 t-13 64.5q-72 -70 -153 -102t-179 -32q-88 0 -147.5 22.5t-94.5 62.5t-50 94.5t-15 117.5zM575 1366q0 41 27 76t76 35q47 0 68.5 -27t21.5 -59q0 -39 -27.5 -75t-76.5 -36q-45 0 -67 25.5t-22 60.5zM928 1366q0 41 27.5 76t76.5 35q45 0 66.5 -27t21.5 -59q0 -39 -26.5 -75 t-75.5 -36q-47 0 -68.5 25.5t-21.5 60.5z" />
<glyph unicode="&#x4e6;" horiz-adv-x="1531" d="M283 528q0 211 69.5 382t184 291t259 184.5t296.5 64.5q100 0 192 -34t162 -102.5t110.5 -174t40.5 -246.5q0 -213 -69.5 -384t-184 -291t-260 -184.5t-295.5 -64.5q-102 0 -193 34t-160.5 102.5t-110.5 174t-41 248.5zM430 506q0 -104 28.5 -182t80 -128.5t118 -76 t144.5 -25.5q125 0 241.5 54.5t206.5 159t145.5 257t55.5 348.5q0 104 -28.5 182.5t-80 128.5t-119 75.5t-143.5 25.5q-125 0 -241.5 -54t-207.5 -158.5t-145.5 -257t-54.5 -349.5zM880 1681q0 41 27 76t76 35q47 0 68.5 -27t21.5 -59q0 -39 -27.5 -75t-76.5 -36 q-45 0 -67 25.5t-22 60.5zM1233 1681q0 41 27.5 76t76.5 35q45 0 66.5 -27t21.5 -59q0 -39 -26.5 -75t-75.5 -36q-47 0 -68.5 25.5t-21.5 60.5z" />
<glyph unicode="&#x4e7;" horiz-adv-x="1077" d="M201 332q0 193 54 334t139 233t188.5 137t203.5 45q72 0 136.5 -22.5t113.5 -67.5t78 -111.5t29 -152.5q0 -193 -54.5 -334t-139.5 -234t-188.5 -138.5t-203.5 -45.5q-72 0 -136.5 22.5t-113.5 68t-77.5 112t-28.5 154.5zM336 340q0 -121 67.5 -182.5t161.5 -61.5 q74 0 152 38t142.5 115t106.5 193.5t42 274.5q0 121 -68 182.5t-162 61.5q-74 0 -151.5 -38t-142 -115t-106.5 -193.5t-42 -274.5zM600 1366q0 41 27 76t76 35q47 0 68.5 -27t21.5 -59q0 -39 -27.5 -75t-76.5 -36q-45 0 -67 25.5t-22 60.5zM953 1366q0 41 27.5 76t76.5 35 q45 0 66.5 -27t21.5 -59q0 -39 -26.5 -75t-75.5 -36q-47 0 -68.5 25.5t-21.5 60.5z" />
<glyph unicode="&#x4e8;" horiz-adv-x="1531" d="M283 528q0 211 69.5 382t184 291t259 184.5t296.5 64.5q100 0 192 -34t162 -102.5t110.5 -174t40.5 -246.5q0 -213 -69.5 -384t-184 -291t-260 -184.5t-295.5 -64.5q-102 0 -193 34t-160.5 102.5t-110.5 174t-41 248.5zM430 506q0 -104 28.5 -182t80 -128.5t118 -76 t144.5 -25.5q102 0 199.5 37t180.5 108.5t146.5 177t93.5 242.5h-983q-4 -37 -6 -74.5t-2 -78.5zM463 778h979q4 33 6 67t2 68q0 104 -28.5 182.5t-80 128.5t-119 75.5t-143.5 25.5q-102 0 -198.5 -36t-178 -105.5t-144 -172t-95.5 -233.5z" />
<glyph unicode="&#x4e9;" horiz-adv-x="1077" d="M201 332q0 193 54 334t139 233t188.5 137t203.5 45q72 0 136.5 -22.5t113.5 -67.5t78 -111.5t29 -152.5q0 -193 -54.5 -334t-139.5 -234t-188.5 -138.5t-203.5 -45.5q-72 0 -136.5 22.5t-113.5 68t-77.5 112t-28.5 154.5zM336 340q0 -121 67.5 -182.5t161.5 -61.5 q57 0 120 24.5t119 74t102 123t73 174.5h-631q-12 -72 -12 -152zM375 604h626q6 51 7 113q0 121 -68 182.5t-162 61.5q-55 0 -114.5 -21.5t-113.5 -67t-100.5 -112t-74.5 -156.5z" />
<glyph unicode="&#x4ea;" horiz-adv-x="1531" d="M283 528q0 211 69.5 382t184 291t259 184.5t296.5 64.5q100 0 192 -34t162 -102.5t110.5 -174t40.5 -246.5q0 -213 -69.5 -384t-184 -291t-260 -184.5t-295.5 -64.5q-102 0 -193 34t-160.5 102.5t-110.5 174t-41 248.5zM430 506q0 -104 28.5 -182t80 -128.5t118 -76 t144.5 -25.5q102 0 199.5 37t180.5 108.5t146.5 177t93.5 242.5h-983q-4 -37 -6 -74.5t-2 -78.5zM463 778h979q4 33 6 67t2 68q0 104 -28.5 182.5t-80 128.5t-119 75.5t-143.5 25.5q-102 0 -198.5 -36t-178 -105.5t-144 -172t-95.5 -233.5zM880 1681q0 41 27 76t76 35 q47 0 68.5 -27t21.5 -59q0 -39 -27.5 -75t-76.5 -36q-45 0 -67 25.5t-22 60.5zM1233 1681q0 41 27.5 76t76.5 35q45 0 66.5 -27t21.5 -59q0 -39 -26.5 -75t-75.5 -36q-47 0 -68.5 25.5t-21.5 60.5z" />
<glyph unicode="&#x4eb;" horiz-adv-x="1077" d="M201 332q0 193 54 334t139 233t188.5 137t203.5 45q72 0 136.5 -22.5t113.5 -67.5t78 -111.5t29 -152.5q0 -193 -54.5 -334t-139.5 -234t-188.5 -138.5t-203.5 -45.5q-72 0 -136.5 22.5t-113.5 68t-77.5 112t-28.5 154.5zM336 340q0 -121 67.5 -182.5t161.5 -61.5 q57 0 120 24.5t119 74t102 123t73 174.5h-631q-12 -72 -12 -152zM375 604h626q6 51 7 113q0 121 -68 182.5t-162 61.5q-55 0 -114.5 -21.5t-113.5 -67t-100.5 -112t-74.5 -156.5zM626 1366q0 41 27 76t76 35q47 0 68.5 -27t21.5 -59q0 -39 -27.5 -75t-76.5 -36 q-45 0 -67 25.5t-22 60.5zM979 1366q0 41 27.5 76t76.5 35q45 0 66.5 -27t21.5 -59q0 -39 -26.5 -75t-75.5 -36q-47 0 -68.5 25.5t-21.5 60.5z" />
<glyph unicode="&#x4ec;" horiz-adv-x="1175" d="M68 49l67 129q41 -27 114 -55.5t177 -28.5q143 0 251.5 50.5t187.5 131t128 183t74 209.5h-606l28 118h598q6 55 7 109q0 205 -90.5 317.5t-301.5 112.5q-90 0 -163.5 -15.5t-143.5 -45.5l-10 120q25 10 55.5 21.5t72.5 22t97.5 16.5t126.5 6q240 0 372 -143.5 t132 -407.5q0 -170 -50 -337t-153.5 -299t-261.5 -213t-373 -81q-115 0 -204.5 28t-130.5 52zM553 1681q0 41 27 76t76 35q47 0 68.5 -27t21.5 -59q0 -39 -27.5 -75t-76.5 -36q-45 0 -67 25.5t-22 60.5zM906 1681q0 41 27.5 76t76.5 35q45 0 66.5 -27t21.5 -59 q0 -39 -26.5 -75t-75.5 -36q-47 0 -68.5 25.5t-21.5 60.5z" />
<glyph unicode="&#x4ed;" horiz-adv-x="851" d="M57 18l45 121q33 -14 85.5 -27.5t109.5 -13.5q100 0 180 31t139.5 85t99.5 126t60 152h-457l27 112h451q2 18 3 36.5t1 37.5q0 135 -66.5 210t-222.5 75q-78 0 -135.5 -17.5t-85.5 -32.5l-4 115q16 8 43.5 18.5t62.5 18.5t74 13t78 5q104 0 178 -29.5t122 -81.5 t70.5 -122t22.5 -152q0 -135 -40 -264t-121 -230.5t-203.5 -164t-288.5 -62.5q-86 0 -136.5 12.5t-91.5 28.5zM362 1366q0 41 27 76t76 35q47 0 68.5 -27t21.5 -59q0 -39 -27.5 -75t-76.5 -36q-45 0 -67 25.5t-22 60.5zM715 1366q0 41 27.5 76t76.5 35q45 0 66.5 -27 t21.5 -59q0 -39 -26.5 -75t-75.5 -36q-47 0 -68.5 25.5t-21.5 60.5z" />
<glyph unicode="&#x4ee;" horiz-adv-x="1075" d="M72 16l47 117q12 -8 47 -19.5t88 -11.5q66 0 120 21.5t100 56.5t86 82t75 98q-53 154 -94 300.5t-73 280.5t-55.5 255t-39.5 223h147q23 -188 69 -422.5t138 -496.5q68 96 136.5 206.5t136 229.5t132 241.5t123.5 241.5h148q-78 -150 -147.5 -276.5t-139 -243.5 t-140.5 -230.5t-151 -232.5q-53 -78 -111.5 -158.5t-132 -146t-163.5 -107.5t-205 -42q-35 0 -80 12t-61 22zM643 1647l27 117h531l-27 -117h-531z" />
<glyph unicode="&#x4ef;" horiz-adv-x="925" d="M-121 -348l47 110q55 -31 125 -30q104 0 204.5 57t186.5 174q-86 272 -135 553t-57 543h139q4 -98 13.5 -215t28 -244t45 -259t65.5 -257q92 145 165.5 293.5t129 279.5t91.5 236.5t52 165.5h131q-12 -43 -45 -146.5t-88 -240.5t-134 -296t-181 -310 q-158 -236 -305.5 -343.5t-307.5 -107.5q-37 0 -80 6t-90 31zM460 1325l27 117h531l-27 -117h-531z" />
<glyph unicode="&#x4f0;" horiz-adv-x="1075" d="M72 16l47 117q12 -8 47 -19.5t88 -11.5q66 0 120 21.5t100 56.5t86 82t75 98q-53 154 -94 300.5t-73 280.5t-55.5 255t-39.5 223h147q23 -188 69 -422.5t138 -496.5q68 96 136.5 206.5t136 229.5t132 241.5t123.5 241.5h148q-78 -150 -147.5 -276.5t-139 -243.5 t-140.5 -230.5t-151 -232.5q-53 -78 -111.5 -158.5t-132 -146t-163.5 -107.5t-205 -42q-35 0 -80 12t-61 22zM669 1681q0 41 27 76t76 35q47 0 68.5 -27t21.5 -59q0 -39 -27.5 -75t-76.5 -36q-45 0 -67 25.5t-22 60.5zM1022 1681q0 41 27.5 76t76.5 35q45 0 66.5 -27 t21.5 -59q0 -39 -26.5 -75t-75.5 -36q-47 0 -68.5 25.5t-21.5 60.5z" />
<glyph unicode="&#x4f1;" horiz-adv-x="925" d="M-121 -348l47 110q55 -31 125 -30q104 0 204.5 57t186.5 174q-86 272 -135 553t-57 543h139q4 -98 13.5 -215t28 -244t45 -259t65.5 -257q92 145 165.5 293.5t129 279.5t91.5 236.5t52 165.5h131q-12 -43 -45 -146.5t-88 -240.5t-134 -296t-181 -310 q-158 -236 -305.5 -343.5t-307.5 -107.5q-37 0 -80 6t-90 31zM491 1366q0 41 27 76t76 35q47 0 68.5 -27t21.5 -59q0 -39 -27.5 -75t-76.5 -36q-45 0 -67 25.5t-22 60.5zM844 1366q0 41 27.5 76t76.5 35q45 0 66.5 -27t21.5 -59q0 -39 -26.5 -75t-75.5 -36q-47 0 -68.5 25.5 t-21.5 60.5z" />
<glyph unicode="&#x4f2;" horiz-adv-x="1075" d="M72 16l47 117q12 -8 47 -19.5t88 -11.5q66 0 120 21.5t100 56.5t86 82t75 98q-53 154 -94 300.5t-73 280.5t-55.5 255t-39.5 223h147q23 -188 69 -422.5t138 -496.5q68 96 136.5 206.5t136 229.5t132 241.5t123.5 241.5h148q-78 -150 -147.5 -276.5t-139 -243.5 t-140.5 -230.5t-151 -232.5q-53 -78 -111.5 -158.5t-132 -146t-163.5 -107.5t-205 -42q-35 0 -80 12t-61 22zM646 1573l292 323l93 -98l-324 -293zM967 1573l293 323l92 -98l-323 -293z" />
<glyph unicode="&#x4f3;" horiz-adv-x="925" d="M-121 -348l47 110q55 -31 125 -30q104 0 204.5 57t186.5 174q-86 272 -135 553t-57 543h139q4 -98 13.5 -215t28 -244t45 -259t65.5 -257q92 145 165.5 293.5t129 279.5t91.5 236.5t52 165.5h131q-12 -43 -45 -146.5t-88 -240.5t-134 -296t-181 -310 q-158 -236 -305.5 -343.5t-307.5 -107.5q-37 0 -80 6t-90 31zM478 1260l292 323l93 -98l-324 -293zM799 1260l293 323l92 -98l-323 -293z" />
<glyph unicode="&#x4f4;" horiz-adv-x="1150" d="M313 848q0 82 25 184l96 387h139l-100 -405q-10 -41 -15 -76t-5 -70q0 -104 62.5 -166.5t209.5 -62.5q84 0 164 18.5t125 30.5l176 731h139l-342 -1419h-139l137 567q-18 -8 -55 -17t-79 -16.5t-84 -12.5t-73 -5q-195 0 -288 86t-93 246zM702 1681q0 41 27 76t76 35 q47 0 68.5 -27t21.5 -59q0 -39 -27.5 -75t-76.5 -36q-45 0 -67 25.5t-22 60.5zM1055 1681q0 41 27.5 76t76.5 35q45 0 66.5 -27t21.5 -59q0 -39 -26.5 -75t-75.5 -36q-47 0 -68.5 25.5t-21.5 60.5z" />
<glyph unicode="&#x4f5;" horiz-adv-x="1003" d="M242 639q0 53 14 109l76 311h133l-70 -281q-18 -68 -18 -116q0 -72 43 -110t147 -38q100 0 174 14.5t115 30.5l121 500h133l-254 -1059h-133l106 449q-12 -8 -38.5 -17.5t-63.5 -17.5t-79 -13.5t-83 -5.5q-324 0 -323 244zM540 1366q0 41 27 76t76 35q47 0 68.5 -27 t21.5 -59q0 -39 -27.5 -75t-76.5 -36q-45 0 -67 25.5t-22 60.5zM893 1366q0 41 27.5 76t76.5 35q45 0 66.5 -27t21.5 -59q0 -39 -26.5 -75t-75.5 -36q-47 0 -68.5 25.5t-21.5 60.5z" />
<glyph unicode="&#x4f6;" horiz-adv-x="952" d="M170 0l340 1419h754l-27 -114h-614l-285 -1184h133l-121 -500h-133l92 379h-139z" />
<glyph unicode="&#x4f7;" horiz-adv-x="778" d="M139 219q0 113 47 181.5t119 111.5t154 70.5t153.5 57.5t118.5 72t47 115q0 37 -14 62.5t-39 41t-57.5 23t-67.5 7.5q-37 0 -74 -5.5t-70.5 -14.5t-63.5 -19.5t-48 -18.5l-10 121q59 29 130 44t138 15q59 0 114.5 -13t97.5 -44t66.5 -79t24.5 -118q0 -100 -47 -160.5 t-118.5 -99.5t-153.5 -65.5t-154 -59t-119 -80t-47 -128.5q0 -39 17.5 -66t48 -42t69.5 -22.5t82 -7.5t90.5 4t91.5 10.5t81 14.5t55 16l-107 -436h-129l70 285q-41 -8 -80 -12.5t-76 -4.5q-70 0 -132 12.5t-108 42t-73 76t-27 113.5z" />
<glyph unicode="&#x4f8;" horiz-adv-x="1587" d="M170 27l334 1392h139l-129 -542q61 4 102 8t82 4q106 0 195.5 -17.5t153 -57.5t98.5 -104.5t35 -158.5q0 -164 -57.5 -272.5t-151.5 -173t-212 -91t-239 -26.5q-43 0 -91 3t-95 7t-89 11t-75 18zM332 123q16 -2 66.5 -8t123.5 -6q90 0 182.5 16t167 63.5t121.5 130 t47 218.5q0 74 -27.5 118.5t-74.5 70.5t-110.5 34t-135.5 8q-51 0 -86 -2t-58.5 -4t-37.5 -4t-25 -2zM974 1685q0 41 27 76t76 35q47 0 68.5 -27t21.5 -59q0 -39 -27.5 -75t-76.5 -36q-45 0 -67 25.5t-22 60.5zM1284 0l342 1419h139l-342 -1419h-139zM1327 1685 q0 41 27.5 76t76.5 35q45 0 66.5 -27t21.5 -59q0 -39 -26.5 -75t-75.5 -36q-47 0 -68.5 25.5t-21.5 60.5z" />
<glyph unicode="&#x4f9;" horiz-adv-x="1456" d="M170 25l248 1034h133l-102 -424q18 4 47.5 10t63.5 11.5t69 8.5t59 3q168 0 261 -62.5t93 -210.5q0 -127 -48 -209t-123.5 -128t-166 -63.5t-176.5 -17.5q-106 0 -199 12.5t-159 35.5zM324 117q29 -4 80 -12.5t137 -8.5q76 0 142.5 15.5t115.5 49.5t77.5 87t28.5 127 q0 88 -52 131t-181 43q-74 0 -142.5 -10.5t-107.5 -20.5zM831 1366q0 41 27 76t76 35q47 0 68.5 -27t21.5 -59q0 -39 -27.5 -75t-76.5 -36q-45 0 -67 25.5t-22 60.5zM1174 0l256 1059h133l-256 -1059h-133zM1184 1366q0 41 27.5 76t76.5 35q45 0 66.5 -27t21.5 -59 q0 -39 -26.5 -75t-75.5 -36q-47 0 -68.5 25.5t-21.5 60.5z" />
<glyph unicode="&#x1e80;" horiz-adv-x="1775" d="M349 700.5q5 352.5 28 718.5h135q-20 -309 -27.5 -625.5t4.5 -639.5q86 135 161 255.5t148.5 246.5t151.5 266.5t172 314.5h123q10 -154 24.5 -305.5t30 -291.5t33 -264t33.5 -220q68 119 139.5 267t143 312t143.5 338t139 346h152q-166 -414 -330 -763t-338 -656h-147 q-39 215 -72 470t-55 552q-152 -276 -302.5 -524t-312.5 -498h-147q-35 348 -30 700.5zM1011 1781l109 119l299 -317l-72 -72z" />
<glyph unicode="&#x1e81;" horiz-adv-x="1562" d="M266 1059h131q2 -109 8.5 -237t16.5 -255t22.5 -239.5t28.5 -188.5q66 92 134.5 205t131 234.5t116.5 244.5t91 236h137q0 -100 5.5 -219t13.5 -242t19.5 -241.5t25.5 -217.5q49 55 119.5 167t142.5 244t134.5 267t92.5 242h131q-47 -152 -122.5 -310.5t-160.5 -301 t-169 -260t-148 -187.5h-139q-20 180 -38.5 389t-22.5 412q-41 -96 -95.5 -206t-116 -217.5t-126 -205.5t-125.5 -172h-139q-43 225 -69 493.5t-30 565.5zM831 1464l109 119l299 -317l-72 -72z" />
<glyph unicode="&#x1e82;" horiz-adv-x="1775" d="M349 700.5q5 352.5 28 718.5h135q-20 -309 -27.5 -625.5t4.5 -639.5q86 135 161 255.5t148.5 246.5t151.5 266.5t172 314.5h123q10 -154 24.5 -305.5t30 -291.5t33 -264t33.5 -220q68 119 139.5 267t143 312t143.5 338t139 346h152q-166 -414 -330 -763t-338 -656h-147 q-39 215 -72 470t-55 552q-152 -276 -302.5 -524t-312.5 -498h-147q-35 348 -30 700.5zM1104 1601l340 299l78 -127l-358 -262z" />
<glyph unicode="&#x1e83;" horiz-adv-x="1562" d="M266 1059h131q2 -109 8.5 -237t16.5 -255t22.5 -239.5t28.5 -188.5q66 92 134.5 205t131 234.5t116.5 244.5t91 236h137q0 -100 5.5 -219t13.5 -242t19.5 -241.5t25.5 -217.5q49 55 119.5 167t142.5 244t134.5 267t92.5 242h131q-47 -152 -122.5 -310.5t-160.5 -301 t-169 -260t-148 -187.5h-139q-20 180 -38.5 389t-22.5 412q-41 -96 -95.5 -206t-116 -217.5t-126 -205.5t-125.5 -172h-139q-43 225 -69 493.5t-30 565.5zM907 1284l340 299l78 -127l-358 -262z" />
<glyph unicode="&#x1e84;" horiz-adv-x="1775" d="M349 700.5q5 352.5 28 718.5h135q-20 -309 -27.5 -625.5t4.5 -639.5q86 135 161 255.5t148.5 246.5t151.5 266.5t172 314.5h123q10 -154 24.5 -305.5t30 -291.5t33 -264t33.5 -220q68 119 139.5 267t143 312t143.5 338t139 346h152q-166 -414 -330 -763t-338 -656h-147 q-39 215 -72 470t-55 552q-152 -276 -302.5 -524t-312.5 -498h-147q-35 348 -30 700.5zM1022 1692q0 41 27 76t76 35q47 0 68.5 -27t21.5 -59q0 -39 -27.5 -75t-76.5 -36q-45 0 -67 25.5t-22 60.5zM1375 1692q0 41 27.5 76t76.5 35q45 0 66.5 -27t21.5 -59q0 -39 -26.5 -75 t-75.5 -36q-47 0 -68.5 25.5t-21.5 60.5z" />
<glyph unicode="&#x1e85;" horiz-adv-x="1562" d="M266 1059h131q2 -109 8.5 -237t16.5 -255t22.5 -239.5t28.5 -188.5q66 92 134.5 205t131 234.5t116.5 244.5t91 236h137q0 -100 5.5 -219t13.5 -242t19.5 -241.5t25.5 -217.5q49 55 119.5 167t142.5 244t134.5 267t92.5 242h131q-47 -152 -122.5 -310.5t-160.5 -301 t-169 -260t-148 -187.5h-139q-20 180 -38.5 389t-22.5 412q-41 -96 -95.5 -206t-116 -217.5t-126 -205.5t-125.5 -172h-139q-43 225 -69 493.5t-30 565.5zM800 1366q0 41 27 76t76 35q47 0 68.5 -27t21.5 -59q0 -39 -27.5 -75t-76.5 -36q-45 0 -67 25.5t-22 60.5zM1153 1366 q0 41 27.5 76t76.5 35q45 0 66.5 -27t21.5 -59q0 -39 -26.5 -75t-75.5 -36q-47 0 -68.5 25.5t-21.5 60.5z" />
<glyph unicode="&#x1ef2;" horiz-adv-x="1136" d="M369 1419h151q41 -176 94.5 -363.5t118.5 -348.5q70 78 147.5 168t153.5 184t143.5 186t120.5 174h166q-141 -188 -319 -407t-371 -439l-135 -573h-139l135 573q-39 104 -75 215t-69.5 219.5t-64.5 214t-57 197.5zM674 1771l109 119l299 -317l-72 -72z" />
<glyph unicode="&#x1ef3;" horiz-adv-x="925" d="M-121 -348l47 110q55 -31 125 -30q104 0 204.5 57t186.5 174q-86 272 -135 553t-57 543h139q4 -98 13.5 -215t28 -244t45 -259t65.5 -257q92 145 165.5 293.5t129 279.5t91.5 236.5t52 165.5h131q-12 -43 -45 -146.5t-88 -240.5t-134 -296t-181 -310 q-158 -236 -305.5 -343.5t-307.5 -107.5q-37 0 -80 6t-90 31zM446 1464l109 119l299 -317l-72 -72z" />
<glyph unicode="&#x2000;" horiz-adv-x="951" />
<glyph unicode="&#x2001;" horiz-adv-x="1902" />
<glyph unicode="&#x2002;" horiz-adv-x="951" />
<glyph unicode="&#x2003;" horiz-adv-x="1902" />
<glyph unicode="&#x2004;" horiz-adv-x="634" />
<glyph unicode="&#x2005;" horiz-adv-x="475" />
<glyph unicode="&#x2006;" horiz-adv-x="317" />
<glyph unicode="&#x2007;" horiz-adv-x="317" />
<glyph unicode="&#x2008;" horiz-adv-x="237" />
<glyph unicode="&#x2009;" horiz-adv-x="380" />
<glyph unicode="&#x200a;" horiz-adv-x="105" />
<glyph unicode="&#x2010;" horiz-adv-x="571" d="M162 528l31 129h466l-30 -129h-467z" />
<glyph unicode="&#x2011;" horiz-adv-x="571" d="M162 528l31 129h466l-30 -129h-467z" />
<glyph unicode="&#x2012;" horiz-adv-x="571" d="M162 528l31 129h466l-30 -129h-467z" />
<glyph unicode="&#x2013;" horiz-adv-x="1001" d="M119 567l28 117h1022l-26 -117h-1024z" />
<glyph unicode="&#x2014;" horiz-adv-x="2027" d="M119 567l28 117h2048l-30 -117h-2046z" />
<glyph unicode="&#x2018;" horiz-adv-x="483" d="M406 1090q12 61 37.5 123.5t57 120t68.5 109.5t74 95l102 -41q-37 -53 -65.5 -101t-50 -96.5t-35.5 -99.5t-23 -110h-165z" />
<glyph unicode="&#x2019;" horiz-adv-x="483" d="M383 1110q37 53 65.5 101.5t50 96.5t36 99t22.5 111h166q-12 -61 -38 -124t-57.5 -120t-68.5 -109.5t-74 -95.5z" />
<glyph unicode="&#x201a;" horiz-adv-x="464" d="M37 -211q78 106 121 199.5t63 206.5h166q-25 -117 -86.5 -228.5t-157.5 -220.5z" />
<glyph unicode="&#x201c;" horiz-adv-x="811" d="M406 1090q12 61 37.5 123.5t57 120t68.5 109.5t74 95l102 -41q-37 -53 -65.5 -101t-50 -96.5t-35.5 -99.5t-23 -110h-165zM742 1090q12 61 37.5 123.5t57 120t68.5 109.5t74 95l102 -41q-37 -53 -65.5 -101t-50 -96.5t-35.5 -99.5t-23 -110h-165z" />
<glyph unicode="&#x201d;" horiz-adv-x="811" d="M365 1110q37 53 65.5 101.5t50 96.5t36 99t22.5 111h166q-12 -61 -38 -124t-57.5 -120t-68.5 -109.5t-74 -95.5zM698 1110q37 53 65.5 101.5t50 96.5t36 99t22.5 111h166q-12 -61 -38 -124t-57.5 -120t-68.5 -109.5t-74 -95.5z" />
<glyph unicode="&#x201e;" horiz-adv-x="802" d="M37 -211q78 106 121 199.5t63 206.5h166q-25 -117 -86.5 -228.5t-157.5 -220.5zM375 -211q78 106 121 199.5t63 206.5h166q-25 -117 -86.5 -228.5t-157.5 -220.5z" />
<glyph unicode="&#x2020;" horiz-adv-x="919" d="M262 842l29 116h327l111 461h121l-111 -461h328l-29 -116h-325l-133 -549q-43 -174 -85 -314.5t-89 -273.5h-56q14 135 39 274.5t68 313.5l131 549h-326z" />
<glyph unicode="&#x2021;" horiz-adv-x="946" d="M180 301l27 117h328l100 424h-326l29 116h328l110 461h121l-111 -461h328l-29 -116h-327l-103 -424h328l-29 -117h-325q-41 -178 -82 -319.5t-92 -278.5h-60q14 139 41 279.5t72 318.5h-328z" />
<glyph unicode="&#x2022;" horiz-adv-x="688" d="M303 723q0 49 16.5 93t48 78t78 54.5t103.5 20.5t102 -20.5t77 -54.5t49.5 -78t17.5 -93t-17.5 -94t-49.5 -79t-77 -53.5t-102 -19.5t-103.5 19.5t-78 53.5t-48 79t-16.5 94z" />
<glyph unicode="&#x2026;" horiz-adv-x="1830" d="M160 72q0 45 30.5 85t85.5 40q53 0 78 -30t25 -69q0 -45 -31 -85t-86 -40q-53 0 -77.5 30t-24.5 69zM826 72q0 45 30.5 85t85.5 40q53 0 78 -30t25 -69q0 -45 -31 -85t-86 -40q-53 0 -77.5 30t-24.5 69zM1493 72q0 45 30.5 85t85.5 40q53 0 78 -30t25 -69q0 -45 -31 -85 t-86 -40q-53 0 -77.5 30t-24.5 69z" />
<glyph unicode="&#x202f;" horiz-adv-x="380" />
<glyph unicode="&#x2039;" horiz-adv-x="616" d="M242 582l387 432l73 -62l-303 -379l170 -380l-94 -46z" />
<glyph unicode="&#x203a;" horiz-adv-x="616" d="M221 209l303 379l-170 381l95 45l233 -434l-387 -433z" />
<glyph unicode="&#x205f;" horiz-adv-x="475" />
<glyph unicode="&#x20ac;" d="M203 485l24 109h158q16 127 49 244h-147l24 108h160q43 111 106.5 203t145.5 157.5t182.5 101.5t218.5 36q57 0 106.5 -8.5t112.5 -30.5l-59 -119q-86 39 -194 39q-86 0 -158 -28.5t-130.5 -79t-105.5 -120t-80 -151.5h494l-45 -108h-487q-35 -121 -48 -244h426l-45 -109 h-389q-2 -20 -2 -38.5v-36.5q0 -55 8.5 -111.5t37 -101.5t84 -74t149.5 -29q92 0 158.5 15.5t113.5 35.5l4 -114q-41 -16 -125 -37t-184 -21q-117 0 -192.5 38t-119.5 98.5t-61.5 135t-17.5 146.5v47.5t2 46.5h-174z" />
<glyph unicode="&#x2116;" horiz-adv-x="2131" d="M170 0l340 1419h133q76 -131 145.5 -291.5t128 -323.5t102.5 -315.5t68 -265.5l279 1196h133l-336 -1419h-133q-37 125 -87 290t-107.5 335t-119 329.5t-118.5 276.5l-295 -1231h-133zM1493 319l33 134h616l-33 -134h-616zM1638 942q0 90 30 179t86 161t139 117t192 45 q61 0 105 -21.5t74 -58.5t43 -85t13 -99q0 -90 -29.5 -179.5t-86 -161t-140.5 -116.5t-190 -45q-61 0 -105.5 21.5t-74 58.5t-43 84t-13.5 100zM1757 961q0 -182 146 -183q68 0 123 36t94 91.5t60.5 123t21.5 132.5q-1 182 -146 182q-68 0 -123 -35.5t-94 -91t-60.5 -123 t-21.5 -132.5z" />
<glyph unicode="&#x2122;" horiz-adv-x="1452" d="M283 1337v82h528v-82h-219v-581h-90v581h-219zM866 756q2 102 9.5 200.5t14.5 185.5t16 157.5t18 119.5h75q18 -29 48 -81t64 -113.5t69.5 -128t64.5 -123.5q29 57 65 123.5t69.5 128t63.5 114t48 80.5h72q8 -49 17 -119.5t16.5 -157.5t13.5 -185.5t10 -200.5h-92 q-6 147 -15.5 274t-21.5 219q-25 -43 -57.5 -100t-63.5 -114.5t-56.5 -107.5t-39.5 -79h-66q-14 29 -39.5 79t-56.5 107.5t-63.5 114.5t-57.5 100q-12 -92 -21 -219t-16 -274h-88z" />
<glyph unicode="&#x25ca;" horiz-adv-x="1062" d="M180 729q94 106 180 203.5t168 186.5t160 172t156 165q80 -168 159.5 -355.5t165.5 -408.5q-188 -215 -347.5 -390t-315.5 -337q-80 168 -160 355.5t-166 408.5zM315 711q61 -162 115.5 -294t108.5 -249q70 72 130 136.5t118.5 129t118 132t126.5 145.5 q-31 82 -59.5 152.5t-55 135t-54 126t-56.5 126.5q-68 -70 -128.5 -133t-118.5 -127.5t-117.5 -133t-127.5 -146.5z" />
<glyph unicode="&#x25fc;" horiz-adv-x="1054" d="M0 0v1055h1055v-1055h-1055z" />
</font>
</defs>
</svg>
